<svg xmlns="http://www.w3.org/2000/svg">
<defs>
<font id="UTMAvoBold" horiz-adv-x="1552" >
  <font-face 
    font-family="UTM Avo"
    font-weight="700"
    font-stretch="normal"
    units-per-em="2048"
    panose-1="2 4 6 3 5 5 6 2 2 4"
    ascent="1638"
    descent="-410"
    x-height="1137"
    cap-height="1516"
    bbox="-118.001 -541.001 4942 2460"
    underline-thickness="109"
    underline-position="-143"
    unicode-range="U+0020-U+2026"
  />
<missing-glyph horiz-adv-x="5040" 
d="M3351 2045h10c24.667 -6.66699 37 -24 37 -52c0 -8 -10.667 -27 -32 -57h-28c0 16 9.33301 34 28 54l2 10c-3.33301 8.66699 -6.66602 13.667 -10 15h-9c-5.33301 0 -8.66602 -6.33301 -10 -19h-30c4 32.667 18 49 42 49zM2019 2016l29.001 -31
c0 -10.667 -13.333 -20.667 -40 -30h-19l-59 12l-11 -12l-28 25c7.33301 19.333 21.666 29 42.999 29h11l42 -11h2c6.66699 0 16.667 6 30 18zM468.001 1980h142v-60h-94v-75h89v-59h-89v-129l-5 -5h-49v323zM1155 1980h43l6 -5v-78h30v-52h-30v-188l-6 -5h-49v193h-25v52
h25v78zM1621 1980h41.999l4 -5v-94h3c15.333 16 33.333 24 54 24h2c38.667 0 66.334 -23.667 83.001 -71l2 -39v-143h-52v115c0 53.333 -14 80 -42 80h-7c-28.667 0 -43 -28.667 -43 -86v-109h-51v323zM2200 1980l49 -0.000976562l5 -5v-222c6.66699 -34 21.667 -51 45 -51
c29.333 4.66699 44 24.334 44 59.001v214l5 5h49v-216c0 -56.667 -22 -94 -66 -112c-10 -5.33301 -21.667 -8 -35 -8c-31.333 0 -58.666 18.333 -82 55c-9.33301 16 -14 35 -14 57v224zM2435 1980h159v-60h-56v-268h-53v268h-55v55zM2621 1980l71 0.000976562
c4.66699 -2.66699 32.334 -86.334 83 -251.001h2l80 251h73v-328h-54v242h-2l-74 -242h-44c-2.66699 0 -22 60.667 -58 182l-19 60h-3v-242h-55v328zM3760 1980l52 -0.000976562v-328h-45l-5 5v11l3 2l-3 14c-19.333 -26.667 -45.333 -40 -78 -40
c-44.667 0 -78 30.333 -100 91l-5 39v3c0 62.667 30.667 104.334 92 125.001l23 3c23.333 0 44.333 -10.667 63 -32h3v107zM2057 1928l36 0.00195312l4 -6v-49h-45v-221h-48v23c-15.333 -20.667 -35 -31 -59 -31c-59.333 9.33301 -89 41.666 -89 96.999v156h51v-104

<glyph glyph-name=".notdef" horiz-adv-x="5040" 
d="M3351 2045h10c24.667 -6.66699 37 -24 37 -52c0 -8 -10.667 -27 -32 -57h-28c0 16 9.33301 34 28 54l2 10c-3.33301 8.66699 -6.66602 13.667 -10 15h-9c-5.33301 0 -8.66602 -6.33301 -10 -19h-30c4 32.667 18 49 42 49zM2019 2016l29.001 -31
c0 -10.667 -13.333 -20.667 -40 -30h-19l-59 12l-11 -12l-28 25c7.33301 19.333 21.666 29 42.999 29h11l42 -11h2c6.66699 0 16.667 6 30 18zM468.001 1980h142v-60h-94v-75h89v-59h-89v-129l-5 -5h-49v323zM1155 1980h43l6 -5v-78h30v-52h-30v-188l-6 -5h-49v193h-25v52
h25v78zM1621 1980h41.999l4 -5v-94h3c15.333 16 33.333 24 54 24h2c38.667 0 66.334 -23.667 83.001 -71l2 -39v-143h-52v115c0 53.333 -14 80 -42 80h-7c-28.667 0 -43 -28.667 -43 -86v-109h-51v323zM2200 1980l49 -0.000976562l5 -5v-222c6.66699 -34 21.667 -51 45 -51
c29.333 4.66699 44 24.334 44 59.001v214l5 5h49v-216c0 -56.667 -22 -94 -66 -112c-10 -5.33301 -21.667 -8 -35 -8c-31.333 0 -58.666 18.333 -82 55c-9.33301 16 -14 35 -14 57v224zM2435 1980h159v-60h-56v-268h-53v268h-55v55zM2621 1980l71 0.000976562
c4.66699 -2.66699 32.334 -86.334 83 -251.001h2l80 251h73v-328h-54v242h-2l-74 -242h-44c-2.66699 0 -22 60.667 -58 182l-19 60h-3v-242h-55v328zM3760 1980l52 -0.000976562v-328h-45l-5 5v11l3 2l-3 14c-19.333 -26.667 -45.333 -40 -78 -40
c-44.667 0 -78 30.333 -100 91l-5 39v3c0 62.667 30.667 104.334 92 125.001l23 3c23.333 0 44.333 -10.667 63 -32h3v107zM2057 1928l36 0.00195312l4 -6v-49h-45v-221h-48v23c-15.333 -20.667 -35 -31 -59 -31c-59.333 9.33301 -89 41.666 -89 96.999v156h51v-104
c0 -52.667 8.66699 -81.334 26 -86.001l18 -5h6c17.333 0 30.333 12 39 36l3 26v133h53v25zM3476 1928v-55h-31v-221h-47v25h-2c-10 -22 -29 -33 -57 -33c-45.333 0 -74 26 -86 78l-3 29v146h52v-120c0 -33.333 6.33301 -56 19 -68l21 -7h9c28 0 42 23 42 69v126h27
c2.66699 0 4 9.33301 4 28l3 3h49zM758 1905c45.333 0 79.667 -25.667 103 -77c6 -12 10 -30 12 -54c0 -58.667 -30 -101 -90 -127l-32 -3c-42 0 -75.667 24.333 -101 73c-8 14.667 -12 32 -12 52v10c0 62.667 33.667 104.667 101 126h19zM1011 1905h3
c49.333 0 77 -33.667 83 -101v-152h-51v119c0 50.667 -14 76 -42 76h-5c-29.333 0 -44 -25.333 -44 -76v-119h-52v245h46v-21c20 19.333 40.667 29 62 29zM1466 1905l7 -0.000976562c48 0 83 -29.667 105 -89h-60c-10.667 20.667 -24.667 31 -42 31h-17
c-35.333 -9.33301 -53 -29.666 -53 -60.999l-3 -15c8 -46 28.333 -69 61 -69h9c14.667 0 30.334 9 47.001 27h40l2 3h3l2 -3l2 3l3 -3l2 3l2 -7c-22 -54 -58.667 -81 -110 -81c-50.667 0 -87.334 31.333 -110.001 94l-4 36v3c0 56.667 25.667 96.667 77 120
c10 5.33301 22.333 8 37 8zM3141 1905h1.99902c32.667 0 56 -20 70 -60v-14h-52c0 10.667 -5.33301 16 -16 16h-4c-9.33301 0 -15.666 -4.33301 -18.999 -13v-13c0 -6 22.667 -17.667 68 -35c20 -12.667 30 -32.334 30 -59.001c0 -38.667 -20.333 -65.334 -61 -80.001
l-23 -3c-50.667 8 -76 35.667 -76 83h54c0 -13.333 9 -21.666 27 -24.999h4c12.667 0 20.667 7.66699 24 23c0 14.667 -22.667 29.334 -68 44.001c-22.667 18 -34 37.667 -34 59c0 44 24.667 69.667 74 77zM4203 1905c36.666 0 62.333 -21 77 -63
c4.66602 -12 7 -33.667 7 -65v-125h-52v112c0 55.333 -13.334 83 -40 83h-11c-22 0 -35.334 -18 -40 -54v-141h-52v5h-2l2 2v238h47v-21c16.666 19.333 38 29 64 29zM4432 1905h5c26.666 0 49.666 -13.333 69 -40v18l-3 3l3 11h47v-208c0 -64.667 -28.334 -108.667 -85 -132
l-33 -4h-7c-46.666 0 -81.333 26.667 -104 80h59c16 -14.667 31 -22.334 45 -23.001h13c14.666 0 29 7.33301 43 22c10 8.66699 17.334 26 22 52h-3c-21.334 -26.667 -45.667 -40 -73 -40c-38 0 -70 23.333 -96 70c-6.66602 12 -11.333 33 -14 63
c0 58.667 29 100.334 87 125.001zM3851 1897l53 -0.000976562v-136c4 -39.333 17.333 -59 40 -59h7c30.667 0 46 31 46 93v102h51v-245h-47l-3 10h3l-3 3v5l3 2v3h-4c0 -15.333 -19 -25.666 -57 -30.999h-3c-39.333 0 -67.333 25 -84 75l-2 85v93zM690 1771
c6.66699 -46 27.6689 -69 63.002 -69h7c39.333 9.33301 59 31 59 65v15c-8.66699 43.333 -28.334 65 -59.001 65h-5c-38.667 0 -60.334 -25.333 -65.001 -76zM3630 1774c8.66699 -48 29 -72 61 -72h5c38.667 0 60.667 25 66 75c0 32.667 -17 56 -51 70h-22
c-24.667 0 -43.334 -19 -56 -57zM4374 1774c5.33398 -48 27 -71.999 65 -71.999h5c39.334 8 59 32 59 72c0 40.667 -19.666 65 -59 73h-14c-37.334 -10.667 -56 -31.334 -56 -62.001v-11zM3928 1620h52v-57h-52v57zM1054 1402c28.667 -7.33301 43 -23.667 43 -49v-4
c0 -11.333 -10.667 -31.333 -32 -60h-28c0 16.667 10.333 35.667 31 57v7c0 8 -2.33301 13 -7 15h-12c-6.66699 -2.66699 -10 -9 -10 -19h-28v6c0 21.333 11 36 33 44zM3349 1339c61.333 0 107.333 -33.001 138 -99.001h-60c-24.667 28 -51.334 42 -80 42
c-36.667 0 -65.667 -22.667 -87 -68c-6.66699 -14.667 -10 -30.334 -10 -47.001c0 -52 27 -88.667 81 -110l18 -1c24 0 49 13 75 39h61c-29.333 -64.667 -75.333 -97 -138 -97c-62 0 -109 37.333 -141 112c-6.66699 20.667 -10 41.334 -10 62.001
c0 64.667 30 115.334 90 152.001c19.333 10 40.333 15 63 15zM3664 1339c38 0 72.333 -15.666 103 -46.999c30.667 -34 46 -72.333 46 -115v-20c0 -59.333 -30.333 -108 -91 -146c-22 -8.66699 -43 -13 -63 -13c-59.333 0 -105.333 33.667 -138 101
c-8.66699 22 -13 42 -13 60v18c0 65.333 32.667 115.666 98 150.999c19.333 7.33301 38.666 11 58 11zM2261 1337h2l47 -11h3c7.33301 0 16 3.66699 26 11l18 -36c-12 -12.667 -23.667 -19 -35 -19h-3l-54 10l-20 -7l-20 36c12 10.667 24 16 36 16zM716.002 1334h19
c78.667 0 121.667 -8.66699 129 -26c16.667 -17.333 25 -38 25 -62c-6.66699 -38 -16.667 -57 -30 -57v-6c31.333 -15.333 47 -37.333 47 -66v-18c0 -42 -23 -71.333 -69 -88l-54 -5h-67v328zM2550 1334h53v-217c4 -40.667 19 -61 45 -61c19.333 0 34 13 44 39l3 30v203l4 6
h45l5 -6v-171c0 -78.667 -13.333 -123 -40 -133c-16 -17.333 -37.333 -26 -64 -26c-36.667 0 -67 25.333 -91 76l-4 54v206zM2805 1334h59c2.66699 0 43.334 -79 122 -237h4v237h50l4 -6v-322h-58c-19.333 32 -61 111.333 -125 238h-3v-238h-53v328zM3101 1334h54v-328h-54
v328zM3859 1334l8 0.000976562c103.333 0 161.333 -13.333 174 -40c15.333 -7.33301 31 -32.333 47 -75l4 -36v-11l3 -2c0 -62.667 -27.333 -112.334 -82 -149.001c-23.333 -10 -56.333 -15 -99 -15h-55v328zM4141 1334h153v-60h-103v-75h101v-57h-101v-74l4 -5h99v-57h-157
v322zM3563 1175v-10c0 -50.667 26.333 -86.667 79 -108l19 -1c45.333 0 77.333 28.667 96 86l3 20v15c0 40.667 -20 72 -60 94c-8 5.33301 -21 9 -39 11c-44 0 -76 -27.667 -96 -83zM770.002 1274v-67h9c36 0 54 9.33301 54 28l3 14c-7.33301 16.667 -17 25 -29 25h-37z
M3912 1274v-206.001l2 -3v-2c69.333 0 110 25.333 122 76l2 15v29c0 22.667 -10.667 45.334 -32 68.001c-16.667 15.333 -42.667 23 -78 23h-16zM1041 1259h5c25.333 0 49 -13.333 71 -40v32h49v-245h-49v32c-24 -26.667 -50.667 -40 -80 -40c-50 0 -83.667 32.333 -101 97
l-5 36c0 59.333 28.333 101 85 125zM1314 1259h3c49.333 0 77 -34 83 -102v-151h-51v128c0 44.667 -14 67 -42 67h-10c-22.667 0 -35.667 -20.667 -39 -62v-133h-52v245h47v-21c18.667 19.333 39 29 61 29zM1543 1259h5c30 0 53.667 -13.333 71 -40v32h47v-219
c0 -63.333 -34.667 -105.333 -104 -126h-16c-49.333 0 -85.333 27.333 -108 82h59c17.333 -16.667 32 -25 44 -25h14c34.667 0 56 25.667 64 77c-22 -28 -47.333 -42 -76 -42c-40 0 -73.667 27 -101 81l-7 44v16c0 52.667 28.333 91.667 85 117zM1912 1259l2 0.000976562
c28.667 0 49 -12.333 61 -37h2c21.333 24.667 44.333 37 69 37h4c38 0 64.333 -18.333 79 -55c5.33301 -16.667 8 -31.667 8 -45v-153h-52v138c0 29.333 -7.66699 47.666 -23 54.999l-12 2h-15c-21.333 0 -33.333 -21.667 -36 -65v-130h-52v136c0 39.333 -14.333 59 -43 59
h-8c-21.333 0 -33.333 -19 -36 -57v-138h-54v245h50v-21h2c4 16 22 25.667 54 29zM2282 1259c31.333 0 56.333 -14 75 -42v34h47v-245h-47v32c-24 -26.667 -50 -40 -78 -40c-49.333 0 -83.333 30.667 -102 92l-6 41c0 60 28.333 101.667 85 125zM985.002 1117
c0 -32 20.333 -52.333 61 -61h4c30 0 50.667 15.333 62 46l3 15v22c-8 41.333 -27 62 -57 62h-14c-27.333 0 -47 -19 -59 -57v-27zM1487 1128c0 -32 14.332 -54.667 42.999 -68l18 -4h5c31.333 0 52.333 19 63 57v23c-7.33301 43.333 -26.666 65 -57.999 65h-12
c-33.333 0 -53 -24.333 -59 -73zM2225 1131v-14.001c10 -40.667 29 -61 57 -61h14c38.667 8 58 29.333 58 64v11c0 30 -12.333 51.667 -37 65l-18 5h-10c-42.667 -5.33301 -64 -28.666 -64 -69.999zM770.001 1150v-82c0 -3.33301 2.33301 -5 7 -5c51.333 0 77 15 77 45
c0 22.667 -15.667 36.667 -47 42h-37zM2966 752.999l24 -28l-51 -55c-12 8 -21 16.667 -27 26zM1524 726.999l85 -54c0 -10 -7 -24 -21 -42l-87 54c12 27.333 19.667 41.333 23 42zM2850 692.999h38l55 -60h-54l-21 26l-23 -26h-54c36 40 55.667 60 59 60zM3422 692.999h40
l56 -60h-54l-24 26h-1c0 -3.33301 -6.33301 -12 -19 -26h-54zM622.001 684.999l52 0.00195312c5.33301 -2.66699 21 -48.334 47 -137.001l34 -110c6 5.33301 17.333 38.666 34 99.999l48 147h54v-2l-112 -326h-44zM1159 685.001h51v-54h-51v54zM1354 685.001h46l6 -5v-323
h-52v328zM2317 685.001h45l4 -5v-78h31v-52h-31v-193h-53v193h-26v52h26v78zM2425 685.001h52v-98h2c15.333 15.333 33.333 23 54 23h3c38 0 65 -23.667 81 -71l3 -38v-144h-52v115c0 54 -13 81 -39 81h-10c-28 0 -42 -29 -42 -87v-109h-52v328zM2664 685.001h52v-54h-52v54
zM3028 685.001h44l6 -5v-78h29v-52h-29v-193h-54v193h-27v52h27v78zM3234 685.001h52v-328h-52v328zM3957 685.001h52v-328h-52v328zM4316 685.001h51v-54h-51v54zM1555 610.001h5c55.333 0 92 -34 110 -102l3 -23v-11c0 -55.333 -28.333 -95.333 -85 -120l-35 -5
c-50.667 0 -87.667 32.333 -111 97l-4 32c0 64.667 31 108 93 130zM1811 610.001h4c35.333 0 61.333 -20 78 -60c4.66699 -16.667 7 -43.667 7 -81v-112h-54v146c-4.66699 33.333 -17 50 -37 50h-10c-25.333 0 -39.333 -19 -42 -57v-139h-54v245h49v-21
c17.333 19.333 37 29 59 29zM2046 610.001h4.00098c30 0 51 -13 63 -39h3v31h49v-206c0 -68 -29.667 -113 -89 -135l-28 -3h-5c-48.667 0 -84 27 -106 81h52l37 -20l15 -3h14c33.333 0 53.666 24 60.999 72c-22 -26 -46.333 -39 -73 -39c-41.333 0 -74 25.333 -98 76
c-7.33301 15.333 -11.333 35.333 -12 60c0 56.667 28.667 97.667 86 123zM2866 610.001l2 -0.000976562c54.667 0 91.667 -34.667 111 -104l2 -25l-2 -27h-172c10 -30 25 -45 45 -45l14 -3c19.333 0 35.666 7.33301 49 22h57v-3c-23.333 -50.667 -59.333 -76 -108 -76
c-51.333 0 -88.333 32.333 -111 97l-1 28v8c0 32.667 10.667 62.334 32 89.001c22.667 26 50 39 82 39zM3429 610h5c27.333 0 50.666 -13 70 -39h2v31h47v-245h-47v31h-2c-23.333 -26 -49 -39 -77 -39c-47.333 0 -81 29.667 -101 89l-5 36v14c0 57.333 28 97.333 84 120z
M3711 610l7 -0.000976562c58.667 0 94.334 -42.667 107 -128l-2 -1v-15c0 -43.333 -22 -78.666 -66 -105.999c-14 -7.33301 -29.333 -11 -46 -11c-22.667 0 -44 10.667 -64 32v-99l-5 -5h-49v325h49v-28c20.667 24 43.667 36 69 36zM4151 609.999
c29.334 0 54.334 -13 75 -39v31h49v-245h-49v31c-23.334 -26 -49 -39 -77 -39c-61.333 0 -97.333 44 -108 132c0 56 24.333 96.333 73 121c10 5.33301 22.334 8 37 8zM922.002 601.999h50v-136c2 -40 16 -60 42 -60h5c29.333 0 44 29 44 87v109h52v-245h-47v24h-5
c0 -15.333 -18.667 -26 -56 -32h-3c-36.667 0 -64 22.667 -82 68c-2.66699 23.333 -4 56.333 -4 99v81zM1159 601.999h51v-245h-51v245zM2664 601.999h52v-245h-52v245zM4316 601.999h51v-245h-51v245zM1492 487.999v-15.999c8.66699 -44 28.334 -66 59.001 -66h4
c39.333 0 61.333 25.333 66 76c-8.66699 47.333 -28.334 71 -59.001 71h-11c-39.333 -10.667 -59 -32.334 -59 -65.001zM1987 472c10 -44 29.667 -66 59 -66h11c32 0 51.667 25 59 75v1c-8.66699 47.333 -28.334 71 -59 71h-14c-26 0 -44.667 -19 -56 -57v-24zM2805 506h122
v2c-10.667 30 -30.334 45 -59 45h-7c-23.333 0 -42 -15.667 -56 -47zM3373 474c8.66699 -45.333 29 -68 61 -68h5c34.667 0 56.334 21 65 63v12c-6.66699 48 -25.667 72 -57 72h-16c-37.333 -9.33301 -56 -30.333 -56 -63zM3642 478c8 -48 28.333 -72.001 61 -72.001h3
c33.333 0 55 20 65 60v22c0 28.667 -16.333 50.334 -49 65.001h-22c-31.333 0 -50.666 -24 -58 -72v-3zM4095 471.999c6.66602 -44 28.666 -66 66 -66c28.666 0 49 16 61 48l2 15v16c0 36 -17.334 58.667 -52 68h-18c-28 0 -47.666 -20 -59 -60v-21zM3416 320.999h51v-52
h-51v52zM4137 320.999h51v-52h-51v52zM2733 132.999h4c23.333 0 37.666 -16.667 43 -50v-2c0 -10.667 -8 -24.334 -24 -41.001l-10 -17h-28c0 16.667 9.33301 35.334 28 56.001l3 2v2c-2 12.667 -5 19 -9 19h-10c-5.33301 0 -8.33301 -6.33301 -9 -19h-30
c4 33.333 18 50 42 50zM1546 115.999l52 -60l-26 -19l-52 52zM352.002 78.999h4c50 -32 78.333 -52 85 -60l-20 -37c-58.667 32.667 -88 52 -88 58zM3490 78.999l86 -58l-18 -39c-6.66699 0 -37 18.333 -91 55c10 24 17.667 38 23 42zM4578 75.999l19 -42l-91 -52l-20 39
l92 58v-3zM1204 52.999h51v-19l5 -5h14v-36h-14l-5 -5v-279h-46v31c-22.667 -26.667 -49.667 -40 -81 -40c-48 0 -82 35 -102 105l-3 26c0 68 33.667 111.667 101 131h14c22 0 44 -11 66 -33v59l-6 5h-43v36h49v24zM1480 44.999h40l56 -61h-53l-23 27l-23 -27h-53z
M2641 44.999h33c8 0 29 -20.333 63 -61h-54l-23 27c-12.667 -14 -19 -23 -19 -27h-58v4zM49.002 36.999h160v-60h-56v-268h-50l-4 5v245l2 3v2l-2 2l2 3l-2 2l2 3l-2 3h-54v54zM699.002 36.999h47v-73l2 -2l-2 -3v-3l2 -2l-2 -3v-3l2 -2v-2l-2 -3l2 -3h3
c11.333 16 28.333 24 51 24h3c35.333 0 61 -19.333 77 -58c4.66699 -11.333 7 -25.333 7 -42v-153h-52v127c0 45.333 -13.333 68 -40 68h-8c-28.667 0 -43 -28.667 -43 -86v-109h-52v322zM1297 36.999h47l5 -6v-49h-52v55zM1987 36.999h52v-198l70 115h62l-78 -118l90 -125
v-2h-70c-6.66699 14.667 -31.334 53 -74 115v-115h-52v328zM2271 36.999v-98.999c16 16 33.667 24 53 24c38 0 64.667 -18.667 80 -56c6.66699 -12.667 10 -38.334 10 -77.001v-120h-54v133c0 41.333 -13.667 62 -41 62h-11c-20.667 0 -33 -18.333 -37 -55v-140h-53v314
l-1 3v3l1 2l-1 3l1 3h53zM2458 37h51v-55h-51v55zM3148 37h51v-108c18 22 40.667 33 68 33h3c50 0 85 -31.333 105 -94l5 -37c0 -50 -21.333 -90 -64 -120c-20 -7.33301 -36.333 -11 -49 -11c-27.333 0 -51.333 13.333 -72 40v-31h-47v328zM4275 37h52v-99h2
c15.334 16 33.334 24 54 24h3c40 0 67.334 -24.667 82 -74l2 -41v-138h-52v111c0 54.667 -10.666 82 -32 82l-10 2h-12c-24.666 0 -37 -26.667 -37 -80v-115h-52v328zM329.002 -38h3v-58h-5c-28 0 -42 -19 -42 -57v-138h-53v245h47v-21c12 19.333 28.667 29 50 29z
M564.002 -38c47.333 0 75.999 -29 85.999 -87v-166h-51v136c-4 39.333 -17.667 59 -41 59h-6c-30 0 -45 -28 -45 -84v-111h-52v245h50v-21c16.667 19.333 36.334 29 59.001 29zM1504 -38c48 0 83 -31.333 105 -94l5 -39c-1.33301 -16 -3.66602 -24 -6.99902 -24h-169
c11.333 -31.333 32 -47 62 -47c16 0 32 7 48 21h57c-22 -52.667 -58 -79 -108 -79c-54.667 0 -92.334 35 -113.001 105v37c0 54 29.667 93 89 117zM2657 -38h5c51.333 0 87 -32.333 107 -97l3 -26v-21l-3 -13h-170c12 -31.333 29.667 -47 53 -47h12c14 0 28 7 42 21h59
c-22.667 -52.667 -57.667 -79 -105 -79c-56 0 -94.333 34 -115 102l-2 29c0 62 30.333 104.667 91 128zM2915 -38h3.99902c36 0 62 -20 78 -60c4.66699 -16.667 7 -44 7 -82v-111h-54v138c0 32 -11.667 51 -35 57h-11c-25.333 0 -39.666 -19 -42.999 -57v-138h-54v245h50
v-21c16.667 19.333 36 29 58 29zM3508 -38h6c26.667 0 50 -13.333 70 -40h2v32h47v-245h-47v31h-2c-22.667 -26.667 -48.667 -40 -78 -40c-47.333 0 -81 30 -101 90l-4 37v12c0 54.667 25.667 93.667 77 117c7.33301 4 17.333 6 30 6zM3781 -38h4
c41.333 0 68.666 -26 82 -78l3 -84v-91h-54v138c0 32 -12.667 51 -38 57h-9c-25.333 0 -39.333 -17.333 -42 -52v-143h-54v245h49v-21c17.333 19.333 37 29 59 29zM4133 -38h1c49.334 0 84 -31 104 -93l4 -40c0 -58.667 -28 -100.667 -84 -126l-25 -3
c-27.333 0 -50 11.333 -68 34v-106h-52v326h47v-29c20 24.667 44.334 37 73 37zM4714 -38h5c22.666 0 43.666 -12.333 63 -37c18 24.667 41 37 69 37h6c37.334 0 63.667 -22 79 -66l6 -51v-136h-52v122c0 48.667 -13 73 -39 73h-7c-23.334 0 -37 -16.667 -41 -50v-140l-5 -5
h-48v140c0 28 -10.334 46.333 -31 55h-17c-26.666 0 -40 -25.667 -40 -77v-118h-51v245h47v-21c14.666 19.333 33.333 29 56 29zM359 -46h49l5 -6v-234l-5 -5h-49v245zM1297 -46h52v-245h-52v245zM1649 -46h52v-136c2.66699 -40 17 -60 43 -60h4c29.333 0 44 27 44 81v115
h52v-245h-47v24h-5c-8 -22 -27.667 -33 -59 -33c-34.667 0 -61 21 -79 63c-3.33301 8 -5 19.333 -5 34v157zM2458 -46h51v-245h-51v245zM4515 -46h51v-245h-51v245zM1077 -169c0 -35.333 16.999 -59.666 50.999 -72.999h12c36 0 58 22 66 66v10
c0 35.333 -18 58.666 -54 69.999h-17c-25.333 0 -44.666 -19 -57.999 -57v-16zM1438 -143h122.001c-12 31.333 -29.667 47 -53 47h-7c-28.667 0 -49.334 -14.667 -62.001 -44v-3zM2599 -143h122c-14 31.333 -32 47 -54 47h-7c-30.667 0 -51 -15.667 -61 -47zM3196 -158v-11
c6.66699 -48.667 27 -73 61 -73h5c42.667 5.33301 64 29 64 71v5c0 30 -12.667 51.667 -38 65l-18 5h-14c-40 -9.33301 -60 -30 -60 -62zM3452 -173c9.33301 -46 30 -69 62 -69h11c27.333 0 47 20 59 60v13c-5.33301 48.667 -24 73 -56 73h-17
c-31.333 0 -51 -24.333 -59 -73v-4zM4062 -158v-22c0 -31.333 19.667 -52 59 -62h9c33.334 0 53.667 25.333 61 76c-8.66602 46.667 -28 70 -58 70h-15c-37.333 -11.333 -56 -32 -56 -62z" />
    <glyph glyph-name="space" unicode=" " horiz-adv-x="632" 
 />
    <glyph glyph-name="exclam" unicode="!" horiz-adv-x="681" 
d="M165 500v1016h350v-1016h-350zM165 0v348h350v-348h-350z" />
    <glyph glyph-name="quotedbl" unicode="&#x22;" horiz-adv-x="948" 
d="M808 907h-219l-67 609h356zM356 907h-219l-68 609h356z" />
    <glyph glyph-name="numbersign" unicode="#" horiz-adv-x="1265" 
d="M1173 825h-229l-21 -149h227l-30 -227h-230l-49 -357h-231l49 357h-160l-49 -357h-233l49 357h-203l31 227h205l20 149h-205l31 228h205l45 323h233l-45 -323h160l45 323h233l-45 -323h228zM552 825l-20 -149h160l20 149h-160z" />
    <glyph glyph-name="dollar" unicode="$" horiz-adv-x="860" 
d="M1010 215c-58 -72 -134.999 -124.003 -230.999 -156.003v-215h-276v207c-110.667 24 -194 70.333 -250 139c-60 74.667 -90 164.334 -90 269.001h350c6 -97.333 46.333 -146 121 -146c78 0 117 40.333 117 121c0 54.667 -30 99.667 -90 135c-22 13.333 -52.667 28 -92 44
l-106 43c-42 18 -77.333 35.667 -106 53c-36.667 22.667 -67.334 47.334 -92.001 74.001c-60 66 -90 151.667 -90 257c0 216 109.333 354 328 414v207h276v-207c192.667 -44.667 287.667 -171 285 -379v-10h-317c-5.33301 86 -43 129 -113 129c-74 0 -111 -38.333 -111 -115
c0 -54 34.333 -100.333 103 -139c24 -13.333 54.333 -27 91 -41l83 -31c91.333 -35.333 163 -85 215 -149c57.333 -69.333 86 -150.666 86 -243.999c0 -98 -30.333 -184.667 -91 -260z" />
    <glyph glyph-name="percent" unicode="%" horiz-adv-x="1757" 
d="M1574 79c-72 -73.333 -158.667 -110 -260 -110c-102.667 0 -190 36.333 -262 109c-72.667 72 -109 159.333 -109 262s36.333 190 109 262c72 72.667 159.333 109 262 109c102 0 189 -36.667 261 -110c72 -72 108 -159 108 -261c0 -101.333 -36.333 -188.333 -109 -261z
M677 0h-235l626 1516h238zM702 915c-72 -72 -158.667 -108 -260 -108s-188.333 36 -261 108c-72 72 -108 159 -108 261c0 101.333 36 188.333 108 261s159 109 261 109s189 -36 261 -108c71.333 -72.667 107 -160 107 -262s-36 -189 -108 -261zM1314 483
c-95.333 0 -143 -47.667 -143 -143s47.667 -143 143 -143c94 0 141 47.667 141 143s-47 143 -141 143zM442 1319c-94.667 0 -142 -47.667 -142 -143c0 -94.667 47.333 -142 142 -142c94 0 141 48 141 144c0 94 -47 141 -141 141z" />
    <glyph glyph-name="ampersand" unicode="&#x26;" 
d="M1376 610c-33.333 -77.333 -71.668 -144.001 -115.001 -200.001l207 -213l-231 -228l-179 185c-70 -60.667 -139.333 -106 -208 -136c-76.667 -32.667 -158 -49 -244 -49c-133.333 0 -249.333 39.333 -348 118c-105.333 84.667 -158 192.334 -158 323.001
c0 91.333 27.667 172.666 83 243.999c24 30.667 54 61 90 91c28.667 24.667 64.667 51.334 108 80.001c-96 98 -144 207.333 -144 328c0 113.333 42 207.333 126 282c81.333 72.667 179.333 109 294 109c110 0 203 -34.333 279 -103c78.667 -71.333 118 -161.333 118 -270
c0 -74 -19.333 -141 -58 -201c-33.333 -50.667 -83.666 -99.667 -150.999 -147l179 -180l110 248h359zM658.998 1270c-61.333 0 -92.001 -33.667 -92.001 -101c0 -29.333 9 -59 27 -89c12.667 -22 32.334 -46.667 59.001 -74l35 36c12 13.333 22 26 30 38
c19.333 30.667 29 62 29 94c0 64 -29.333 96 -88 96zM588.997 620.999c-36.667 -29.333 -63 -54.333 -79 -75c-24.667 -32 -37 -66 -37 -102c0 -99.333 58 -149 174 -149c76 0 137.333 27.333 184 82z" />
    <glyph glyph-name="quotesingle" unicode="'" horiz-adv-x="643" 
d="M499 1085c0 -69.333 -17 -126.666 -51 -171.999c-38 -50 -90.667 -75 -158 -75h-147v182l51 -1c21.333 0.666992 39 2.66699 53 6c38.667 9.33301 58 33.666 58 72.999v69h-162v349h356v-431z" />
    <glyph glyph-name="parenleft" unicode="(" horiz-adv-x="968" 
d="M881 -541c-228.667 86.667 -409.668 221.001 -543.001 403.001c-136.667 187.333 -205 400.666 -205 639.999c0 240 68.667 453.333 206 640c132.667 182 313.334 316 542.001 402v-356c-114 -63.333 -205 -162 -273 -296c-64 -126 -96 -257.333 -96 -394
c0 -136 32 -266.667 96 -392c68 -132.667 159 -230 273 -292v-355z" />
    <glyph glyph-name="parenright" unicode=")" horiz-adv-x="968" 
d="M631 -140c-133.333 -182 -314.333 -315.667 -543 -401v355c113.333 62.667 204.333 161.334 273 296.001c64 125.333 96 256.666 96 393.999c0 136 -32 266.333 -96 391c-68.667 133.333 -159.667 231 -273 293v356c228 -86 408.667 -220.333 542 -403
c137.333 -187.333 206 -401 206 -641s-68.333 -453.333 -205 -640z" />
    <glyph glyph-name="asterisk" unicode="*" horiz-adv-x="1372" 
d="M868 1020l170 -225l-191 -144l-168 236l-161 -236l-191 144l176 225l-268 84l74 223l262 -98l-6 287h243l-14 -287l264 98l78 -223z" />
    <glyph glyph-name="plus" unicode="+" horiz-adv-x="1228" 
d="M778 354v-354h-328v354h-352v328h352v354h328v-354h352v-328h-352z" />
    <glyph glyph-name="comma" unicode="," horiz-adv-x="643" 
d="M499 -82c0 -68 -17.332 -125 -51.999 -171c-38.667 -51.333 -91 -77 -157 -77h-145v183l51 -1c21.333 0 38.666 2 51.999 6c38 9.33301 57 33.333 57 72v70h-160v348h354v-430z" />
    <glyph glyph-name="hyphen" unicode="-" horiz-adv-x="575" 
d="M0 424v334h575v-334h-575z" />
    <glyph glyph-name="hyphen" unicode="&#x2010;" horiz-adv-x="575" 
d="M0 424v334h575v-334h-575z" />
    <glyph glyph-name="period" unicode="." horiz-adv-x="643" 
d="M145 0v348h354v-348h-354z" />
    <glyph glyph-name="slash" unicode="/" horiz-adv-x="1214" 
d="M526 -205h-379l543 1721h377z" />
    <glyph glyph-name="zero" unicode="0" horiz-adv-x="1265" 
d="M1197 547c0 -118 -24.668 -221.001 -74.001 -309.001c-53.333 -93.333 -131.666 -163.666 -234.999 -210.999c-77.333 -37.333 -160.666 -56 -249.999 -56c-78.667 0 -155.667 15.667 -231 47c-226.667 95.333 -340 271.666 -340 528.999v422c0 262 114 438.667 342 530
c77.333 30 153.666 45 228.999 45c78 0 155.333 -16.333 232 -49c218 -95.333 327 -270.666 327 -525.999v-422zM809.999 978.999c0 67.333 -12.001 119.666 -36.001 156.999c-30 45.333 -77.333 68 -142 68c-61.333 0 -107.666 -23 -138.999 -69
c-26 -39.333 -39 -91.333 -39 -156v-442c0 -65.333 13 -117.666 39 -156.999c30.667 -46 77 -69 139 -69c64.667 0 112 22.667 142 68c24 38 36 90.667 36 158v442z" />
    <glyph glyph-name="one" unicode="1" horiz-adv-x="1265" 
d="M460 0v1190h-248v326h635v-1516h-387z" />
    <glyph glyph-name="two" unicode="2" horiz-adv-x="1265" 
d="M104 0l0.00195312 301.001l125 83c44 30 83.667 58.667 119 86c84 64.667 157 131.334 219 200.001c25.333 27.333 48.666 54.666 69.999 81.999c26 33.333 48.667 65.666 68 96.999c47.333 78 71 147.333 71 208c0 98 -47.667 147 -143 147
c-62.667 0 -108.334 -25.667 -137.001 -77c-21.333 -38 -33.666 -92 -36.999 -162h-369c2 73.333 8.66699 133.666 20 180.999c13.333 60 36.666 115.667 69.999 167c49.333 76 117 134.333 203 175c80 37.333 168 56 264 56c104 0 197 -21.333 279 -64
c90 -46.667 156 -114 198 -202c26 -58.667 39 -116.667 39 -174c0 -78 -15.667 -155.333 -47 -232c-27.333 -68 -67.333 -136.667 -120 -206c-43.333 -57.333 -97.333 -117.666 -162 -180.999l-88 -82c-22.667 -21.333 -51.667 -47 -87 -77h514v-326h-1069z" />
    <glyph glyph-name="three" unicode="3" horiz-adv-x="1265" 
d="M1005 99c-110.667 -85.333 -237.665 -127.997 -380.998 -127.997c-92.667 0 -180.334 17.333 -263.001 52c-94 38 -164 91.667 -210 161c-26 39.333 -45.667 82.333 -59 129c-10.667 38 -19 84.667 -25 140h391c21.333 -94.667 80 -142 176 -142
c109.333 0 164 56.667 164 170c0 77.333 -41.667 125.666 -125 144.999c-29.333 6.66699 -66.333 10 -111 10l-104 -1v285h43c16.667 0 31.334 0.333008 44.001 1c33.333 2.66699 61 8 83 16c57.333 21.333 86 66 86 134c0 88.667 -35.333 133 -106 133
c-77.333 0 -117 -43.667 -119 -131h-381c2 146 53.333 262.333 154 349c95.333 81.333 216.666 122 363.999 122c127.333 0 236.666 -36.333 327.999 -109c98 -78.667 147 -180.334 147 -305.001c0 -139.333 -66.667 -245 -200 -317c189.333 -64.667 284 -187 284 -367
c0 -138.667 -60 -254.334 -180 -347.001z" />
    <glyph glyph-name="four" unicode="4" horiz-adv-x="1265" 
d="M1068 266v-266h-370v266h-668v283l678 967h360v-947h168v-303h-168zM722 1044h-4l-299 -475h303v475z" />
    <glyph glyph-name="five" unicode="5" horiz-adv-x="1265" 
d="M1167 307c-97.333 -225.333 -275.999 -337.998 -535.999 -337.998c-144 0 -268.333 37.333 -373 112c-110.667 79.333 -179 187.666 -205 324.999h389c45.333 -63.333 104.666 -95 177.999 -95c56 0 104 19.667 144 59c40.667 39.333 61 86.666 61 141.999
c0 132.667 -69 199 -207 199c-94.667 0 -160.667 -43.667 -198 -131l-314 77l131 859h838v-326h-541l-32 -207c54.667 30 122.667 45 204 45c225.333 0 380.333 -101.667 465 -305c27.333 -65.333 41 -133 41 -203c0 -73.333 -15 -144.333 -45 -213z" />
    <glyph glyph-name="six" unicode="6" horiz-adv-x="1265" 
d="M1059 135c-112 -109.333 -251.332 -163.998 -417.999 -163.998c-173.333 0 -316 54 -428 162c-113.333 109.333 -170 250.666 -170 423.999c0 70 13 141 39 213c23.333 64 56.666 128.333 99.999 193l377 553h449l-334 -457l4 -4c10 3.33301 22 5.66602 36 6.99902l38 1
c140 0 255.333 -51 346 -153c87.333 -98.667 131 -219 131 -361c0 -166 -56.667 -304 -170 -414zM780.001 665.002c-40.667 38.667 -91 58.001 -151 58.001c-58 0 -106.667 -19 -146 -57c-39.333 -38.667 -59 -86.667 -59 -144c0 -58.667 19.333 -108.334 58 -149.001
c39.333 -41.333 88.333 -62 147 -62s108.667 19.333 150 58c42 39.333 63 88.333 63 147c0 60 -20.667 109.667 -62 149z" />
    <glyph glyph-name="seven" unicode="7" horiz-adv-x="1265" 
d="M588 0h-426l559 1190h-588v326h987v-297z" />
    <glyph glyph-name="eight" unicode="8" horiz-adv-x="1265" 
d="M1012 100c-108 -86 -234 -129.002 -378 -129.002c-144.667 0 -271.334 43 -380.001 129c-116.667 92.667 -175 209.667 -175 351c0 187.333 79.333 315 238 383c-98.667 74.667 -148 169.334 -148 284.001c0 126.667 46.333 230.334 139 311.001
c88 76.667 196 115 324 115c126.667 0 234.334 -38 323.001 -114c93.333 -80 140 -182.667 140 -308c0 -114.667 -49.333 -210.667 -148 -288c158.667 -67.333 238 -195 238 -383c0 -141.333 -57.667 -258.333 -173 -351zM634 1231c-94 0 -141 -46.333 -141 -139
c0 -93.333 45.667 -140 137 -140c94 0 141 48 141 144c0 90 -45.667 135 -137 135zM632 656.998c-110.667 0 -166 -57.333 -166 -172c0 -116 57.333 -174 172 -174c44.667 0 83 17.667 115 53c30 34 45 73.667 45 119c0 116 -55.333 174 -166 174z" />
    <glyph glyph-name="nine" unicode="9" horiz-adv-x="1265" 
d="M1192 754c-23.333 -63.333 -58.334 -129.668 -105.001 -199.001l-377 -555h-449l334 459l-4 4c-10 -4 -22.333 -6.33301 -37 -7c-5.33301 -0.666992 -11.666 -1 -18.999 -1h-18c-68 0 -135 16.333 -201 49c-184 90.667 -276 245.667 -276 465
c0 166.667 56.333 304.334 169 413.001c112 108 251.667 162 419 162c201.333 0 360.333 -66 477 -198c84.667 -96 127 -219.667 127 -371c0 -75.333 -13.333 -149 -40 -221zM784.999 1144c-40 40 -89.667 60 -149 60c-58 0 -107 -19 -147 -57
c-41.333 -39.333 -62 -88 -62 -146c0 -58.667 20 -107.667 60 -147s89.667 -59 149 -59c58.667 0 107.667 18.333 147 55c41.333 38.667 62 87 62 145c0 59.333 -20 109 -60 149z" />
    <glyph glyph-name="colon" unicode=":" horiz-adv-x="643" 
d="M145 788v349h354v-349h-354zM145 0v348h354v-348h-354z" />
    <glyph glyph-name="semicolon" unicode=";" horiz-adv-x="643" 
d="M145 788v349h354v-349h-354zM499 -82c0 -68 -17.332 -125 -51.999 -171c-38.667 -51.333 -91 -77 -157 -77h-145v183l51 -1c21.333 0 38.666 2 51.999 6c38 9.33301 57 33.333 57 72v70h-160v348h354v-430z" />
    <glyph glyph-name="less" unicode="&#x3c;" horiz-adv-x="1228" 
d="M94 360v316l1040 438v-358l-696 -236v-4l696 -235v-359z" />
    <glyph glyph-name="equal" unicode="=" horiz-adv-x="1228" 
d="M98 625v327h1032v-327h-1032zM98 84v328h1032v-328h-1032z" />
    <glyph glyph-name="greater" unicode="&#x3e;" horiz-adv-x="1228" 
d="M94 -78v359l696 235v4l-696 236v358l1040 -438v-316z" />
    <glyph glyph-name="question" unicode="?" horiz-adv-x="1212" 
d="M1070 901c-16 -26.667 -36 -53.665 -60 -80.998c-18.667 -20.667 -42 -44 -70 -70l-70 -65c-26 -24.667 -46.667 -46 -62 -64c-42 -48 -65 -94.667 -69 -140h-356c0.666992 63.333 19.334 124.666 56.001 183.999c15.333 24 34.333 49 57 75c16.667 18.667 38 41 64 67
l65 64c22.667 23.333 41 44 55 62c36.667 46.667 55 91.334 55 134.001c0 84.667 -39.667 127 -119 127c-56 0 -95 -20.333 -117 -61c-14.667 -28 -22.667 -73.333 -24 -136h-375c-0.666992 6 -1.33398 12.333 -2.00098 19v18c0 150.667 52.333 274 157 370
c102 93.333 229.333 140 382 140c208 0 355.333 -82 442 -246c32.667 -60.667 49 -123.334 49 -188.001c0 -74.667 -19.333 -144.334 -58 -209.001zM383 0.00195312v348h356v-348h-356z" />
    <glyph glyph-name="at" unicode="@" horiz-adv-x="1531" 
d="M1485 655c-30 -88 -75 -162.333 -135 -223c-69.333 -70.667 -146 -106 -230 -106c-99.333 0 -166 49 -200 147c-59.333 -98 -140.666 -147 -243.999 -147c-94 0 -171 37.667 -231 113c-56 69.333 -84 152.333 -84 249c0 116 37 220 111 312
c79.333 98 175.333 147 288 147c105.333 0 173 -40.333 203 -121h4l16 96h213l-85 -498c-3.33301 -20.667 -5 -38.334 -5 -53.001c0 -35.333 18.333 -53 55 -53c35.333 0 68.666 26.667 99.999 80c11.333 20 22 42.667 32 68c8 20.667 14 39.667 18 57
c12 49.333 18 99.666 18 150.999c0 146 -51.333 264.667 -154 356c-99.333 88 -222.666 132 -369.999 132c-169.333 0 -312.333 -61 -429 -183c-115.333 -120 -173 -265.333 -173 -436c0 -76.667 13.667 -151.667 41 -225c44 -122.667 115.667 -215 215 -277
c94 -58 208.667 -87 344 -87c152.667 0 296.667 25 432 75l43 -188c-71.333 -25.333 -149.333 -44.333 -234 -57c-76.667 -11.333 -157 -17 -241 -17c-175.333 0 -327.333 40 -456 120c-135.333 82.667 -234 203.334 -296 362.001c-38 97.333 -57 197 -57 299
c0 224.667 77.333 414.334 232 569.001c155.333 154 345.666 231 570.999 231c201.333 0 371 -61 509 -183c144 -127.333 216 -290 216 -488c0 -76 -12.333 -150 -37 -222zM787 954c-60.667 0 -111.334 -28.668 -152.001 -86.001c-36.667 -51.333 -55 -108.666 -55 -171.999
c0 -118.667 51 -178 153 -178c62.667 0 111.334 31 146.001 93c28.667 50.667 43 109.667 43 177c0 110.667 -45 166 -135 166z" />
    <glyph glyph-name="A" unicode="A" 
d="M1114 0l-74 219h-526l-80 -219h-416l608 1516h305l603 -1516h-420zM782 1044h-6l-156 -518h318z" />
    <glyph glyph-name="B" unicode="B" horiz-adv-x="1325" 
d="M1114 131c-70 -60 -147.671 -98.3311 -233.004 -114.998c-35.333 -7.33301 -76.666 -12 -123.999 -14c-19.333 -0.666992 -41.666 -1.33398 -66.999 -2.00098h-553v1516h467c58.667 0 103.334 -1 134.001 -3c48.667 -2.66699 91.334 -8.33398 128.001 -17.001
c90.667 -20.667 165 -63.334 223 -128.001c60 -66 90 -149.333 90 -250c0 -137.333 -58.667 -239 -176 -305c166.667 -57.333 250 -174.666 250 -351.999c0 -141.333 -46.333 -251.333 -139 -330zM762.996 1154c-24 14.667 -59.333 22 -106 22h-149v-236h147
c102.667 0 154 40.333 154 121c0 44 -15.333 75 -46 93zM825.996 592.002c-29.333 16 -70.667 24 -124 24h-194v-276h192c54.667 0 97 10 127 30c36.667 24.667 55 63 55 115c0 50 -18.667 85.667 -56 107z" />
    <glyph glyph-name="C" unicode="C" horiz-adv-x="1703" 
d="M1640 567c-44 -178 -137.001 -322 -279.001 -432c-140.667 -109.333 -303 -164 -487 -164c-221.333 0 -409.666 76 -564.999 228c-156 152.667 -234 339.667 -234 561c0 220.667 77.333 407 232 559c154 150 341.667 225 563 225c288 0 510.333 -118.667 667 -356
c54.667 -82 89 -164.667 103 -248h-406c-67.333 176 -189.333 264 -366 264c-119.333 0 -217.666 -44.333 -294.999 -133c-74 -85.333 -111 -188.333 -111 -309c0 -122 37 -226.333 111 -313c78 -92 177 -138 297 -138c165.333 0 286.666 85.333 363.999 256h406z" />
    <glyph glyph-name="D" unicode="D" horiz-adv-x="1519" 
d="M646 0l-530 0.000976562v1516h502c74.667 0 140 -3.66699 196 -11c65.333 -8.66699 124.333 -22.667 177 -42c118 -42.667 216.667 -119.334 296 -230.001c93.333 -129.333 140 -286.333 140 -471c0 -508 -260.333 -762 -781 -762zM952 1056
c-64 80 -157.668 120 -281.001 120h-168v-836h166c126.667 0 221.334 38.667 284.001 116c58 70.667 87 170.667 87 300c0 127.333 -29.333 227.333 -88 300z" />
    <glyph glyph-name="E" unicode="E" horiz-adv-x="1081" 
d="M137 0v1516h842v-340h-471v-236h456v-340h-456v-260h471v-340h-842z" />
    <glyph glyph-name="F" unicode="F" horiz-adv-x="1036" 
d="M508 1176v-258h440v-340h-440v-578h-371v1516h827v-340h-456z" />
    <glyph glyph-name="G" unicode="G" horiz-adv-x="1748" 
d="M1685 782c0 -232.667 -76.668 -426.334 -230.001 -581.001c-154 -154.667 -347 -232 -579 -232c-224 0 -414 76.333 -570 229c-156.667 154 -235 342.667 -235 566c0 224 79.667 411 239 561c156 146 346.667 219 572 219c168 0 323.667 -49 467 -147
c148.667 -101.333 245.667 -231 291 -389h-434c-73.333 130.667 -184.666 196 -333.999 196c-121.333 0 -221.333 -43.333 -300 -130c-76 -84 -114 -187.333 -114 -310c0 -128 37 -234.667 111 -320c78 -90 179.667 -135 305 -135c87.333 0 162.666 19.667 225.999 59
c68 42.667 113.333 104.334 136 185.001h-452v309h899c0.666992 -12 1.33398 -25.333 2.00098 -40v-40z" />
    <glyph glyph-name="H" unicode="H" horiz-adv-x="1544" 
d="M1020 0v606h-496v-606h-387v1516h387v-570h496v570h387v-1516h-387z" />
    <glyph glyph-name="I" unicode="I" horiz-adv-x="661" 
d="M137 0v1516h387v-1516h-387z" />
    <glyph glyph-name="J" unicode="J" horiz-adv-x="1183" 
d="M1044 600c0 -49.333 -0.333984 -86.666 -1.00098 -111.999c-2 -42 -5.66699 -79.667 -11 -113c-13.333 -84 -40.666 -152.333 -81.999 -205c-106.667 -132.667 -249.334 -199 -428.001 -199c-73.333 0 -141.666 12.333 -204.999 37c-103.333 37.333 -181 99.333 -233 186
c-48 80 -72 177.667 -72 293h412c2.66699 -50.667 10.334 -89.334 23.001 -116.001c18.667 -40 49.667 -60 93 -60c49.333 0 82.666 21.667 99.999 65c11.333 27.333 17 70 17 128v1012h387v-916z" />
    <glyph glyph-name="K" unicode="K" horiz-adv-x="1447" 
d="M983 0l-414 655h-4v-655h-387v1516h387v-682h4l428 682h406l-502 -756l534 -760h-452z" />
    <glyph glyph-name="L" unicode="L" horiz-adv-x="997" 
d="M147 0v1516h387v-1176h449v-340h-836z" />
    <glyph glyph-name="M" unicode="M" horiz-adv-x="1873" 
d="M1380 0l12 1135l-4 4l-323 -1139h-256l-324 1139l-4 -4l12 -1135h-356v1516h498l301 -998h4l297 998h499v-1516h-356z" />
    <glyph glyph-name="N" unicode="N" horiz-adv-x="1554" 
d="M1079 0l-577 922l-5 -2l11 -920h-371v1516h334l586 -953l4 4l-17 949h371v-1516h-336z" />
    <glyph glyph-name="O" unicode="O" horiz-adv-x="1742" 
d="M1436 196c-155.333 -150 -344.669 -224.999 -568.002 -224.999c-217.333 0 -403.666 73.667 -558.999 221c-158.667 149.333 -238 331.666 -238 546.999c0 114.667 19.667 222.667 59 324c20.667 54 53.667 110.667 99 170c157.333 207.333 371 311 641 311
c222.667 0 411.334 -75.333 566.001 -226c156 -151.333 234 -338 234 -560c0 -222.667 -78 -410 -234 -562zM1171 1068c-79.333 90.667 -179 136 -299 136c-121.333 0 -221.333 -44 -300 -132c-76 -84.667 -114 -188 -114 -310c0 -124.667 38.333 -230 115 -316
c79.333 -90 180.333 -135 303 -135c118 0 216.333 45.333 295 136c74.667 86 112 189 112 309c0 122 -37.333 226 -112 312z" />
    <glyph glyph-name="P" unicode="P" horiz-adv-x="1302" 
d="M1238 788c-29.333 -76 -69.333 -136.665 -120 -181.998c-60.667 -52.667 -129.667 -88.667 -207 -108c-59.333 -15.333 -137.666 -23 -234.999 -23h-168v-475h-371v1516h496c48 0 88.333 -1 121 -3c45.333 -2.66699 86.666 -7.33398 123.999 -14.001
c92 -16 166 -47.333 222 -94c118.667 -100.667 178 -234.334 178 -401.001c0 -74 -13.333 -146 -40 -216zM827 1146c-38.667 20 -97.333 30 -176 30h-143v-361h157c74.667 0 131 11.333 169 34c48.667 28.667 73 78 73 148c0 71.333 -26.667 121 -80 149z" />
    <glyph glyph-name="Q" unicode="Q" horiz-adv-x="1773" 
d="M1750 -27c-43.333 -2.66699 -75.334 -4 -96.001 -4c-68 0 -131.333 8.66699 -190 26c-71.333 20.667 -126.666 51.667 -165.999 93c-127.333 -79.333 -269.333 -119 -426 -119c-219.333 0 -407 75 -563 225c-158.667 152 -238 337.333 -238 556c0 222 77.333 410 232 564
c154 153.333 342.333 230 565 230c219.333 0 408 -73.667 566 -221c162 -150.667 243 -335 243 -553c0 -168 -41.667 -314 -125 -438c50.667 -46.667 116.667 -63.667 198 -51v-308zM1172 1082c-79.333 81.333 -180.001 122.001 -302.001 122.001
c-110.667 0 -203 -37 -277 -111c-69.333 -68.667 -113.666 -159.334 -132.999 -272.001c42 18 77 30.333 105 37c35.333 9.33301 72 14 110 14c106 0 211.333 -32 316 -96c88.667 -55.333 171 -129.666 247 -222.999c34.667 59.333 52 133.666 52 222.999
c0 122.667 -39.333 224.667 -118 306zM958.998 442.001c-30.667 31.333 -61.333 57 -92 77c-70 47.333 -147.667 71 -233 71c-42.667 0 -87.667 -8.33301 -135 -25c72 -170.667 195 -256 369 -256c69.333 0 128 13 176 39c-32 38 -60.333 69.333 -85 94z" />
    <glyph glyph-name="R" unicode="R" horiz-adv-x="1337" 
d="M862 0l-350 489.001h-4v-489h-371v1516h479c50.667 0 91.334 -1 122.001 -3c45.333 -2 86 -6.33301 122 -13c90.667 -15.333 165 -46.333 223 -93c124.667 -100 187 -238 187 -414c0 -120.667 -33 -224.334 -99 -311.001c-68.667 -92 -161.334 -147.333 -278.001 -166
l411 -516h-442zM824 1129c-43.333 31.333 -101.667 47 -175 47h-141v-422h137c169.333 0 254 72.333 254 217c0 70 -25 122.667 -75 158z" />
    <glyph glyph-name="S" unicode="S" horiz-adv-x="1173" 
d="M974 85c-93.333 -76 -218.667 -114.002 -376 -114.002c-160.667 0 -290 40 -388 120c-106 85.333 -159 206 -159 362v49h385c0 -56 12.333 -103 37 -141c28 -44 68.333 -66 121 -66c98 0 147 48.333 147 145c0 44 -17 79.667 -51 107
c-13.333 10.667 -30.666 21.334 -51.999 32.001l-29 14l-165 71c-54.667 22.667 -101.667 45.667 -141 69c-46.667 27.333 -86 57 -118 89c-74 75.333 -111 167.333 -111 276c0 134 56 243.667 168 329c102.667 78 223.334 117 362.001 117c78 0 152.667 -14 224 -42
c77.333 -30.667 139.333 -74 186 -130c62.667 -77.333 96 -177 100 -299h-383c-14.667 98.667 -61 148 -139 148c-88.667 0 -133 -39.667 -133 -119c0 -28 4.66699 -49.333 14 -64c15.333 -26 61.666 -58 138.999 -96l160 -72c56 -25.333 102.667 -49.666 140 -72.999
c45.333 -28 82.666 -57.667 111.999 -89c68 -72 102 -162.667 102 -272c0 -152 -50.667 -269 -152 -351z" />
    <glyph glyph-name="T" unicode="T" horiz-adv-x="1021" 
d="M706 1176v-1176h-387v1176h-299v340h983v-340h-297z" />
    <glyph glyph-name="U" unicode="U" horiz-adv-x="1429" 
d="M1296 600c0 -103.333 -8.66895 -187.002 -26.002 -251.002c-23.333 -82 -65 -153.333 -125 -214c-107.333 -109.333 -248.666 -164 -423.999 -164c-85.333 0 -164 12.333 -236 37c-81.333 28 -148 69.667 -200 125c-64 67.333 -106.667 139.333 -128 216
c-9.33301 34.667 -16 73.667 -20 117c-2.66699 34.667 -4 79.334 -4 134.001v916h387v-916c0 -40 2 -74.333 6 -103c5.33301 -36.667 14.333 -67.667 27 -93c30.667 -62 85.334 -93 164.001 -93c81.333 0 136 30.333 164 91c11.333 24.667 19.333 55.334 24 92.001
c2.66699 26.667 4 62 4 106v916h387v-916z" />
    <glyph glyph-name="V" unicode="V" horiz-adv-x="1478" 
d="M937 0h-399l-506 1516h397l305 -1063h5l307 1063h399z" />
    <glyph glyph-name="W" unicode="W" horiz-adv-x="2009" 
d="M1572 0h-340l-227 981h-4l-228 -981h-350l-391 1516h393l203 -986h4l223 986h297l219 -990h4l207 990h392z" />
    <glyph glyph-name="X" unicode="X" horiz-adv-x="1554" 
d="M1093 0l-328 537l-311 -537h-432l530 807l-469 709h439l260 -433l252 433h436l-463 -717l524 -799h-438z" />
    <glyph glyph-name="Y" unicode="Y" horiz-adv-x="1325" 
d="M858 551v-551h-387v551l-453 965h420l225 -609l227 609h416z" />
    <glyph glyph-name="Z" unicode="Z" horiz-adv-x="1021" 
d="M32 0v254l522 922h-522v340h956v-314l-483 -862h483v-340h-956z" />
    <glyph glyph-name="bracketleft" unicode="[" horiz-adv-x="968" 
d="M820 -541c-149.333 8.66699 -276.334 49.667 -381.001 123c-85.333 60.667 -146 137.667 -182 231c-30 78 -45 175 -45 291v795c0 116.667 15 213.667 45 291c36 92 96.667 169 182 231c56.667 40.667 117.334 71 182.001 91c56.667 17.333 123 28 199 32v-356
c-84.667 -4 -144.334 -31 -179.001 -81c-29.333 -42 -44 -106.667 -44 -194v-823c0 -87.333 14.667 -152 44 -194c34.667 -50 94.334 -76.667 179.001 -80v-357z" />
    <glyph glyph-name="backslash" unicode="\" horiz-adv-x="1214" 
d="M688 -205l-541 1721h377l543 -1721h-379z" />
    <glyph glyph-name="bracketright" unicode="]" horiz-adv-x="968" 
d="M755 104c0 -116 -14.999 -213 -44.999 -291c-36 -91.333 -96.667 -168.333 -182 -231c-56.667 -40.667 -117.334 -70.667 -182.001 -90c-56.667 -17.333 -123 -28.333 -199 -33v357c84.667 3.33301 144.334 30 179.001 80c29.333 42 44 106.667 44 194v823
c0 87.333 -14.667 152 -44 194c-34.667 50 -94.334 77 -179.001 81v356c149.333 -8.66699 276.333 -49.667 381 -123c85.333 -60 146 -136.667 182 -230c30 -78 45 -175.333 45 -292v-795z" />
    <glyph glyph-name="asciicircum" unicode="^" horiz-adv-x="1228" 
d="M772 768l-156 457h-4l-157 -457h-367l356 748h340l357 -748h-369z" />
    <glyph glyph-name="underscore" unicode="_" horiz-adv-x="1024" 
d="M0 -256v102h1024v-102h-1024z" />
    <glyph glyph-name="grave" unicode="`" horiz-adv-x="643" 
d="M143 838v429.999c0 68 17.333 125 52 171c38.667 51.333 91 77 157 77h147v-183l-51 1c-20.667 -0.666992 -38 -2.66699 -52 -6c-37.333 -9.33301 -56 -33.666 -56 -72.999v-69h159v-348h-356z" />
    <glyph glyph-name="a" unicode="a" horiz-adv-x="1441" 
d="M976 0l0.000976562 123h-4c-28.667 -54.667 -76.334 -96.334 -143.001 -125.001c-57.333 -24.667 -120.333 -37 -189 -37c-171.333 0 -310.333 59 -417 177c-102.667 114.667 -154 258.334 -154 431.001c0 170 52.333 312.667 157 428
c108.667 119.333 246.667 179 414 179c68 0 130.667 -12.667 188 -38c64 -28 112 -68.667 144 -122h4v121h340v-1137h-340zM895.001 776c-54 54.667 -122.332 81.999 -204.999 81.999c-82 0 -149.667 -28.667 -203 -86c-52 -55.333 -78 -124.333 -78 -207
c0 -79.333 27 -146.666 81 -201.999c55.333 -56 122.666 -84 201.999 -84c82 0 150 27.667 204 83c53.333 55.333 80 124.333 80 207c0 83.333 -27 152.333 -81 207z" />
    <glyph glyph-name="b" unicode="b" horiz-adv-x="1419" 
d="M1197 140c-106.667 -119.333 -246.668 -178.999 -420.001 -178.999c-64.667 0 -126 12.667 -184 38c-66.667 29.333 -113.667 70 -141 122h-4v-121h-326v1516h340v-469c80.667 86 190.667 129 330 129c79.333 0 159 -18.667 239 -56
c106.667 -49.333 187.334 -123.333 242.001 -222c52 -92.667 78 -200.334 78 -323.001c0 -175.333 -51.333 -320.333 -154 -435zM930.999 772.001c-54 57.333 -120.333 86 -199 86c-80 0 -147.333 -27.667 -202 -83c-53.333 -55.333 -80 -123.333 -80 -204
c0 -82 25.333 -151 76 -207c52 -56.667 118.667 -85 200 -85s149.333 28 204 84c54 56 81 124.667 81 206c0 79.333 -26.667 147 -80 203z" />
    <glyph glyph-name="c" unicode="c" horiz-adv-x="1335" 
d="M1271 432c-32.667 -138.667 -104.332 -251.668 -214.999 -339.001c-110 -86.667 -237 -130 -381 -130c-170 0 -313.667 59 -431 177c-118 117.333 -177 261 -177 431c0 168.667 57.667 311.334 173 428.001c116 118 258.333 177 427 177
c147.333 0 276.666 -43.667 387.999 -131c113.333 -88 184.666 -203.667 213.999 -347h-344c-49.333 106.667 -134 160 -254 160c-79.333 0 -143.333 -29 -192 -87c-46.667 -54.667 -70 -122 -70 -202c0 -82 24.333 -150 73 -204c50.667 -56 116.334 -84 197.001 -84
c111.333 0 193.333 50.333 246 151h346z" />
    <glyph glyph-name="d" unicode="d" horiz-adv-x="1429" 
d="M982 0l-0.000976562 123.001h-4c-33.333 -56.667 -82.333 -98.334 -147 -125.001c-54.667 -23.333 -119 -35 -193 -35c-170 0 -308.333 59.333 -415 178c-102.667 114.667 -154 258 -154 430c0 169.333 51 311.333 153 426c106.667 119.333 243.334 179 410.001 179
c134.667 0 246 -45.333 334 -136v476h340v-1516h-324zM902.999 777.001c-54.667 54 -123 81 -205 81c-82.667 0 -151.334 -26.667 -206.001 -80c-55.333 -54 -83 -122.333 -83 -205c0 -84 26.333 -153.333 79 -208c53.333 -56 122 -84 206 -84
c84.667 0 154.334 27.667 209.001 83c54 55.333 81 125 81 209c0 82 -27 150 -81 204z" />
    <glyph glyph-name="e" unicode="e" horiz-adv-x="1323" 
d="M1249 465l-851.999 -0.000976562c21.333 -143.333 110 -215 266 -215c81.333 0 150.333 35.333 207 106h348c-50.667 -118 -123.334 -212 -218.001 -282c-100.667 -74 -213 -111 -337 -111c-166 0 -307.667 59 -425 177c-118 117.333 -177 259 -177 425
c0 166.667 57.667 309.667 173 429c116.667 121.333 257.667 182 423 182c172 0 315.667 -60.667 431 -182c112.667 -119.333 169 -265.666 169 -438.999c0 -32.667 -2.66699 -62.667 -8 -90zM917.001 693.999c-28 130 -114 195 -258 195s-230 -65 -258 -195h516z" />
    <glyph glyph-name="f" unicode="f" horiz-adv-x="643" 
d="M475 879v-879.001h-340v879h-127v258h127v59c0 128.667 42.667 221.334 128 278.001c70.667 46.667 172.667 70 306 70h49v-256c-60.667 0 -99.667 -9.33301 -117 -28c-17.333 -18 -26 -59 -26 -123h143v-258h-143z" />
    <glyph glyph-name="g" unicode="g" horiz-adv-x="1419" 
d="M1300 89c-0.666992 -17.333 -1 -33.3311 -1 -47.998c-2 -36 -4.66699 -68.333 -8 -97c-10 -70.667 -29.667 -131.334 -59 -182.001c-52.667 -88.667 -136.667 -157 -252 -205c-100.667 -42 -208.334 -63 -323.001 -63c-104 0 -197 16.667 -279 50
c-92.667 38 -165.667 95.667 -219 173c-38.667 56 -62 115 -70 177h394c33.333 -75.333 99.333 -113 198 -113c184.667 0 277 103 277 309v35h-4c-28.667 -52.667 -73 -93.334 -133 -122.001c-54.667 -26.667 -114.334 -40 -179.001 -40
c-167.333 0 -305.333 58.333 -414 175c-106 113.333 -159 254.333 -159 423c0 171.333 52.333 315.333 157 432c108.667 120.667 247.334 181 416.001 181c64.667 0 123.334 -11 176.001 -33c61.333 -25.333 107.333 -62.333 138 -111h4v107h340v-1048zM885 771.002
c-52 56.667 -119.334 85 -202.001 85c-77.333 0 -142.666 -28 -195.999 -84c-52 -54.667 -78 -121 -78 -199c0 -80.667 25 -149 75 -205c51.333 -58 117 -87 197 -87c82 0 149 26.333 201 79c52 53.333 78 121 78 203c0 84 -25 153.333 -75 208z" />
    <glyph glyph-name="h" unicode="h" horiz-adv-x="1294" 
d="M835 0l-0.000976562 618.001c0 71.333 -12 126.333 -36 165c-30 48.667 -79 73 -147 73c-68.667 0 -118.667 -21.333 -150 -64c-26.667 -36.667 -40 -90.334 -40 -161.001v-631h-340v1516h340v-484h4c28 50 70 87.333 126 112c48 21.333 103.667 32 167 32
c134.667 0 237.667 -41.667 309 -125c48.667 -56 80 -121.667 94 -197c6 -30 9.66699 -65.333 11 -106c0.666992 -16 1.33398 -34.667 2.00098 -56v-692h-340z" />
    <glyph glyph-name="i" unicode="i" horiz-adv-x="585" 
d="M122 1257v259h340v-259h-340zM122 0v1137h340v-1137h-340z" />
    <glyph glyph-name="j" unicode="j" horiz-adv-x="657" 
d="M178 1257v259h340v-259h-340zM518 25c0 -162 -28.999 -275 -86.999 -339c-62 -69.333 -173.667 -104 -335 -104h-84v258h45c51.333 0 85.666 17.333 102.999 52c12 23.333 18 63.333 18 120v1125h340v-1112z" />
    <glyph glyph-name="k" unicode="k" horiz-adv-x="1210" 
d="M770 637l416 -637h-385l-322 547h-4v-547h-340v1516h340v-791h4l315 412h404z" />
    <glyph glyph-name="l" unicode="l" horiz-adv-x="585" 
d="M122 0v1516h340v-1516h-340z" />
    <glyph glyph-name="m" unicode="m" horiz-adv-x="1984" 
d="M1527 0l0.000976562 604c0 78 -9.33301 135.667 -28 173c-26.667 52.667 -75.334 79 -146.001 79c-70 0 -120.333 -23 -151 -69c-25.333 -38 -38 -93.333 -38 -166v-621h-340v618c0 70.667 -10.333 125 -31 163c-27.333 50 -73.666 75 -138.999 75
c-72 0 -123.667 -25.333 -155 -76c-24.667 -40 -37 -98.667 -37 -176v-604h-340v1137h317v-121h5c30.667 55.333 74.667 96.333 132 123c51.333 24.667 111.666 37 180.999 37c145.333 0 254.666 -67.667 327.999 -203c85.333 135.333 205.333 203 360 203
c124.667 0 224.334 -38.333 299.001 -115c57.333 -58.667 94 -126.667 110 -204c6 -32 10 -69.667 12 -113c0.666992 -16.667 1 -36.667 1 -60v-684h-340z" />
    <glyph glyph-name="n" unicode="n" horiz-adv-x="1294" 
d="M835 0l0.000976562 621c0 74 -10.667 129 -32 165c-27.333 46.667 -76 70 -146 70c-74 0 -126.333 -22.667 -157 -68c-25.333 -37.333 -38 -94 -38 -170v-618h-340v1137h317v-121h5c65.333 106.667 168.333 160 309 160c115.333 0 212.333 -33 291 -99
c49.333 -41.333 84.666 -97 105.999 -167c16.667 -54.667 25 -121 25 -199v-711h-340z" />
    <glyph glyph-name="o" unicode="o" horiz-adv-x="1363" 
d="M1118 137c-116.667 -114.667 -262.334 -172 -437.001 -172s-320 57.333 -436 172c-117.333 114.667 -176 258.667 -176 432c0 174 58.667 318.333 176 433c116 114.667 261.333 172 436 172s320.334 -57.333 437.001 -172c117.333 -114.667 176 -259 176 -433
c0 -173.333 -58.667 -317.333 -176 -432zM877 770c-52.667 57.333 -118 86 -196 86c-77.333 0 -142.333 -28.667 -195 -86c-51.333 -55.333 -77 -122.333 -77 -201c0 -78 25.667 -145 77 -201c52.667 -56.667 117.667 -85 195 -85c78 0 143.333 28.333 196 85
c51.333 56 77 123 77 201c0 78.667 -25.667 145.667 -77 201z" />
    <glyph glyph-name="p" unicode="p" horiz-adv-x="1427" 
d="M1205 140c-106 -119.333 -239.667 -179 -401 -179c-141.333 0 -255.333 47 -342 141v-481h-340v1516h319v-125h7c86.667 109.333 204.667 164 354 164c170 0 306.667 -62 410 -186c96.667 -116 145 -260.333 145 -433c0 -163.333 -50.667 -302.333 -152 -417zM936 773
c-54.667 56.667 -122.668 85 -204.001 85s-149 -28.333 -203 -85c-54 -55.333 -81 -124 -81 -206c0 -80 27 -148 81 -204c55.333 -56 123 -84 203 -84c80.667 0 148.334 28 203.001 84s82 124 82 204c0 82 -27 150.667 -81 206z" />
    <glyph glyph-name="q" unicode="q" horiz-adv-x="1429" 
d="M966 -379l0.000976562 496.001h-4c-38.667 -54.667 -89.334 -94.667 -152.001 -120c-55.333 -22.667 -119.333 -34 -192 -34c-160.667 0 -293 57.667 -397 173c-101.333 111.333 -152 248.333 -152 411c0 176.667 50.333 324 151 442
c106.667 124.667 246.667 187 420 187c70 0 133.667 -13 191 -39c64.667 -28.667 113 -70.334 145 -125.001h4v125h326v-1516h-340zM897.001 774.001c-54.667 56 -123.002 84 -205.002 84c-83.333 0 -151.666 -29 -204.999 -87c-52 -56 -78 -126 -78 -210
c0 -78.667 28 -145 84 -199s123.667 -81 203 -81c78.667 0 145.334 28 200.001 84s82 123.333 82 202c0 82.667 -27 151.667 -81 207z" />
    <glyph glyph-name="r" unicode="r" horiz-adv-x="743" 
d="M728 834c-87.333 -2.66699 -150.667 -16 -190 -40c-52 -32 -78 -88.333 -78 -169v-625h-340v1137h319v-121h5c54 106.667 148.667 160 284 160v-342z" />
    <glyph glyph-name="s" unicode="s" horiz-adv-x="1021" 
d="M830 59c-87.333 -65.333 -193.329 -98 -317.996 -98c-124 0 -227.667 31.667 -311 95c-88.667 67.333 -139.334 161.333 -152.001 282h338c10 -70 53 -105 129 -105c29.333 0 55.666 7.33301 78.999 22c26.667 16.667 40 39 40 67c0 35.333 -18 64.333 -54 87l-50 24
l-197 71c-79.333 28.667 -141.333 64.334 -186 107.001c-56.667 53.333 -85 116.666 -85 189.999c0 112.667 46 204.667 138 276c84.667 66 185.667 99 303 99c119.333 0 217.666 -29.667 294.999 -89c83.333 -63.333 130.333 -153.333 141 -270h-334
c-2 57.333 -37.333 86 -106 86c-64.667 0 -97 -25.333 -97 -76c0 -38 30 -69 90 -93c20 -8.66699 50.333 -19 91 -31c3.33301 -0.666992 7.66602 -1.66699 12.999 -3l92 -29c40.667 -13.333 75.667 -27.333 105 -42c36 -18 66.333 -38.667 91 -62
c60 -55.333 90 -128.333 90 -219c0 -120.667 -48.333 -217 -145 -289z" />
    <glyph glyph-name="t" unicode="t" horiz-adv-x="718" 
d="M530 879v-879h-340v879h-168v258h168v379h340v-379h164v-258h-164z" />
    <glyph glyph-name="u" unicode="u" horiz-adv-x="1298" 
d="M853 0v121.001h-4c-28 -58 -68.667 -99.667 -122 -125c-46 -22 -103.667 -33 -173 -33c-144.667 0 -256 47.667 -334 143c-42.667 53.333 -71 108.666 -85 165.999c-11.333 43.333 -17 105 -17 185v680h340v-629c0 -73.333 11.333 -127.333 34 -162
c28 -43.333 77.333 -65 148 -65c130 0 195 77 195 231v625h340v-1137h-322z" />
    <glyph glyph-name="v" unicode="v" horiz-adv-x="1212" 
d="M767 0h-325l-408 1137h352l217 -709h4l218 709h352z" />
    <glyph glyph-name="w" unicode="w" horiz-adv-x="1740" 
d="M1378 0h-315l-191 735h-4l-190 -735h-316l-348 1137h352l170 -707h4l187 707h286l189 -707h4l170 707h350z" />
    <glyph glyph-name="x" unicode="x" horiz-adv-x="1290" 
d="M870 0l-227 352l-231 -352h-410l432 608l-383 529h408l184 -299l182 299h404l-383 -529l440 -608h-416z" />
    <glyph glyph-name="y" unicode="y" horiz-adv-x="1175" 
d="M604 -379h-360l180 436l-422 1080h362l228 -660h4l217 660h360z" />
    <glyph glyph-name="z" unicode="z" horiz-adv-x="909" 
d="M30 0v233l479 646h-479v258h846v-258l-445 -621h445v-258h-846z" />
    <glyph glyph-name="braceleft" unicode="{" horiz-adv-x="1134" 
d="M727 -541c-90.667 0 -164.668 24.335 -222.001 73.002c-60.667 50.667 -91 120.667 -91 210v434c0 45.333 -23.333 78.666 -70 99.999c-34.667 16.667 -77.667 25 -129 25v352c52 0 96 10 132 30c44.667 24 67 60 67 108v442c0 88.667 30.333 158.667 91 210
c57.333 48.667 131.333 73 222 73h262v-259l-88 2c-31.333 0 -56 -3 -74 -9c-46 -14.667 -69 -56.667 -69 -126v-428c0 -132 -73.667 -203.667 -221 -215v-8c60.667 -3.33301 111.334 -20 152.001 -50c46 -34 69 -80 69 -138v-435c0 -68.667 23 -110.334 69 -125.001
c18 -6 42.667 -9 74 -9l88 1v-258h-262z" />
    <glyph glyph-name="bar" unicode="|" horiz-adv-x="1136" 
d="M380 -205v1721h375v-1721h-375z" />
    <glyph glyph-name="braceright" unicode="}" horiz-adv-x="1134" 
d="M919 301c-50.667 0 -93.667 -8.33496 -129 -25.002c-46.667 -21.333 -70 -54.666 -70 -99.999v-434c0 -89.333 -30.333 -159.333 -91 -210c-57.333 -48.667 -131.333 -73 -222 -73h-262v258l88 -1c31.333 0 56 3 74 9c46 14.667 69 56.334 69 125.001v435
c0 58 23.333 104 70 138c40 30 90.667 46.667 152 50v8c-148 11.333 -222 83 -222 215v428c0 69.333 -23 111.333 -69 126c-18 6 -42.667 9 -74 9l-88 -2v259h262c90.667 0 164.667 -24.333 222 -73c60.667 -51.333 91 -121.333 91 -210v-442c0 -48 22.667 -84 68 -108
c35.333 -20 79 -30 131 -30v-352z" />
    <glyph glyph-name="asciitilde" unicode="~" horiz-adv-x="1228" 
d="M1091 449c-5.33301 -8 -9.33496 -13.667 -12.002 -17l-39 -50c-20 -23.333 -39 -42.333 -57 -57c-45.333 -38 -96 -57 -152 -57c-36 0 -73.333 7.33301 -112 22c-15.333 6 -32.333 13.333 -51 22l-50 26c-43.333 22.667 -78.333 38.667 -105 48
c-42 14.667 -84 22 -126 22c-40 0 -75.667 -15 -107 -45c-23.333 -22 -46.333 -54.333 -69 -97l-74 320c32 57.333 66.667 100.666 104 129.999c44.667 34.667 96.667 52 156 52c34 0 73 -7.33301 117 -22c29.333 -9.33301 68.333 -25.333 117 -48l57 -25
c20.667 -9.33301 38.334 -17 53.001 -23c38 -14 68.667 -21 92 -21c36.667 0 72.334 16 107.001 48c13.333 12.667 27.333 28.334 42 47.001l36 48z" />
    <glyph glyph-name="dieresis" unicode="&#xa8;" horiz-adv-x="1024" 
 />
    <glyph glyph-name="copyright" unicode="&#xa9;" horiz-adv-x="1638" 
d="M1374 202c-153.333 -154 -338.001 -231 -554.001 -231s-400.667 77 -554 231s-230 339.333 -230 556c0 217.333 77 403 231 557c154 152.667 339.667 229 557 229c214.667 0 398.334 -77.667 551.001 -233c152 -154 228 -338.333 228 -553
c0 -216.667 -76.333 -402 -229 -556zM1257 1200c-119.333 124 -264.333 185.999 -435 185.999c-172.667 0 -318.667 -61.667 -438 -185c-118.667 -122 -178 -269.667 -178 -443c0 -171.333 59.333 -318.666 178 -441.999c120 -124.667 265.333 -187 436 -187
c172 0 317.333 62 436 186c118 122.667 177 270.334 177 443.001c0 171.333 -58.667 318.666 -176 441.999zM971.999 329.999c-7.33301 14.667 -13.665 47.9971 -18.998 99.9971l-5 60c-1.33301 12 -2 21 -2 27c-1.33301 8.66699 -2.33301 16 -3 22
c-10.667 84.667 -62.334 127 -155.001 127h-86v-336h-217v872h368c89.333 0 162.333 -18 219 -54c67.333 -43.333 101 -107.333 101 -192c0 -97.333 -47.333 -167.666 -142 -210.999c42 -17.333 73 -42.666 93 -75.999c15.333 -26.667 25.666 -61.667 30.999 -105
c1.33301 -15.333 2.66602 -35 3.99902 -59l1 -30c0.666992 -11.333 1.33398 -21.333 2.00098 -30c3.33301 -47.333 10.333 -85.666 21 -114.999h-211zM818 1053h-116v-246h112c94.667 0 142 44.333 142 133c0 75.333 -46 113 -138 113z" />
    <glyph glyph-name="registered" unicode="&#xae;" horiz-adv-x="1638" 
d="M1374 202c-153.333 -154 -338.001 -231 -554.001 -231s-400.667 77 -554 231s-230 339.333 -230 556c0 217.333 77 403 231 557c154 152.667 339.667 229 557 229c214.667 0 398.334 -77.667 551.001 -233c152 -154 228 -338.333 228 -553
c0 -216.667 -76.333 -402 -229 -556zM1257 1200c-119.333 124 -264.333 185.999 -435 185.999c-172.667 0 -318.667 -61.667 -438 -185c-118.667 -122 -178 -269.667 -178 -443c0 -171.333 59.333 -318.666 178 -441.999c120 -124.667 265.333 -187 436 -187
c172 0 317.333 62 436 186c118 122.667 177 270.334 177 443.001c0 171.333 -58.667 318.666 -176 441.999zM971.999 329.999c-7.33301 14.667 -13.665 47.9971 -18.998 99.9971l-5 60c-1.33301 12 -2 21 -2 27c-1.33301 8.66699 -2.33301 16 -3 22
c-10.667 84.667 -62.334 127 -155.001 127h-86v-336h-217v872h368c89.333 0 162.333 -18 219 -54c67.333 -43.333 101 -107.333 101 -192c0 -97.333 -47.333 -167.666 -142 -210.999c42 -17.333 73 -42.666 93 -75.999c15.333 -26.667 25.666 -61.667 30.999 -105
c1.33301 -15.333 2.66602 -35 3.99902 -59l1 -30c0.666992 -11.333 1.33398 -21.333 2.00098 -30c3.33301 -47.333 10.333 -85.666 21 -114.999h-211zM818 1053h-116v-246h112c94.667 0 142 44.333 142 133c0 75.333 -46 113 -138 113z" />
    <glyph glyph-name="acute" unicode="&#xb4;" horiz-adv-x="1024" 
 />
    <glyph glyph-name="paragraph" unicode="&#xb6;" horiz-adv-x="1024" 
d="M929 1435l-0.000976562 -70h-127v-1365h-82v1365h-166v-1365h-84v738c-116 5.33301 -207.833 39.5 -275.5 102.5s-101.5 144.833 -101.5 245.5c0 104.667 35.833 189 107.5 253s166.834 96 285.501 96h443z" />
    <glyph glyph-name="onequarter" unicode="&#xbc;" horiz-adv-x="1298" 
 />
    <glyph glyph-name="onehalf" unicode="&#xbd;" horiz-adv-x="1320" 
 />
    <glyph glyph-name="threequarters" unicode="&#xbe;" horiz-adv-x="1288" 
 />
    <glyph glyph-name="Agrave" unicode="&#xc0;" 
d="M1114 0l-74 219h-526l-80 -219h-416l608 1516h305l603 -1516h-420zM782 1044h-6l-156 -518h318zM942 1589l-506 221l104 240l496 -262z" />
    <glyph glyph-name="Aacute" unicode="&#xc1;" 
d="M1114 0l-74 219h-526l-80 -219h-416l608 1516h305l603 -1516h-420zM782 1044h-6l-156 -518h318zM614 1589l-96 201l491 264l109 -242z" />
    <glyph glyph-name="Acircumflex" unicode="&#xc2;" 
d="M1114 0l-74 219h-526l-80 -219h-416l608 1516h305l603 -1516h-420zM782 1044h-6l-156 -518h318zM872 1649l-94 118l-94 -118h-332l319 340h221l308 -340h-328z" />
    <glyph glyph-name="Atilde" unicode="&#xc3;" 
d="M1114 0l-74 219h-526l-80 -219h-416l608 1516h305l603 -1516h-420zM782 1044h-6l-156 -518h318zM1192 1739c-80.667 -50.667 -158 -76 -232 -76c-22.667 0 -49.334 2.66699 -80.001 8l-169 37c-30.667 5.33301 -57 8 -79 8c-24 0 -49 -4 -75 -12l-72 -27l-123 181
c38 21.333 74 38 108 50c41.333 14 80.333 21 117 21c25.333 0 53.333 -2.66699 84 -8c12 -2 25.667 -4.66699 41 -8l82 -19c15.333 -3.33301 29.333 -6 42 -8c30.667 -5.33301 58.334 -8 83.001 -8c44.667 0 94.667 11.667 150 35z" />
    <glyph glyph-name="Egrave" unicode="&#xc8;" horiz-adv-x="1081" 
d="M137 0v1516h842v-340h-471v-236h456v-340h-456v-260h471v-340h-842zM706 1589l-506 221l105 240l496 -262z" />
    <glyph glyph-name="Eacute" unicode="&#xc9;" horiz-adv-x="1081" 
d="M137 0v1516h842v-340h-471v-236h456v-340h-456v-260h471v-340h-842zM379 1589l-97 201l492 264l108 -242z" />
    <glyph glyph-name="Ecircumflex" unicode="&#xca;" horiz-adv-x="1081" 
d="M136 0v1516h842v-340h-471v-236h457v-340h-457v-260h471v-340h-842zM646 1649l-94 118l-94 -118h-332l319 340h222l307 -340h-328z" />
    <glyph glyph-name="Igrave" unicode="&#xcc;" horiz-adv-x="661" 
d="M138 0v1516h387v-1516h-387zM445 1589l-506 221l104 240l496 -262z" />
    <glyph glyph-name="Iacute" unicode="&#xcd;" horiz-adv-x="661" 
d="M136 0v1516h387v-1516h-387zM218 1589l-96 201l492 264l108 -242z" />
    <glyph glyph-name="Ograve" unicode="&#xd2;" horiz-adv-x="1742" 
d="M1436 196c-155.333 -150 -344.669 -224.999 -568.002 -224.999c-217.333 0 -403.666 73.667 -558.999 221c-158.667 149.333 -238 331.666 -238 546.999c0 114.667 19.667 222.667 59 324c20.667 54 53.667 110.667 99 170c157.333 207.333 371 311 641 311
c222.667 0 411.334 -75.333 566.001 -226c156 -151.333 234 -338 234 -560c0 -222.667 -78 -410 -234 -562zM1171 1068c-79.333 90.667 -179 136 -299 136c-121.333 0 -221.333 -44 -300 -132c-76 -84.667 -114 -188 -114 -310c0 -124.667 38.333 -230 115 -316
c79.333 -90 180.333 -135 303 -135c118 0 216.333 45.333 295 136c74.667 86 112 189 112 309c0 122 -37.333 226 -112 312zM1036 1589l-506 221l104 240l496 -262z" />
    <glyph glyph-name="Oacute" unicode="&#xd3;" horiz-adv-x="1742" 
d="M1436 196c-155.333 -150 -344.669 -224.999 -568.002 -224.999c-217.333 0 -403.666 73.667 -558.999 221c-158.667 149.333 -238 331.666 -238 546.999c0 114.667 19.667 222.667 59 324c20.667 54 53.667 110.667 99 170c157.333 207.333 371 311 641 311
c222.667 0 411.334 -75.333 566.001 -226c156 -151.333 234 -338 234 -560c0 -222.667 -78 -410 -234 -562zM1171 1068c-79.333 90.667 -179 136 -299 136c-121.333 0 -221.333 -44 -300 -132c-76 -84.667 -114 -188 -114 -310c0 -124.667 38.333 -230 115 -316
c79.333 -90 180.333 -135 303 -135c118 0 216.333 45.333 295 136c74.667 86 112 189 112 309c0 122 -37.333 226 -112 312zM707.997 1589l-96 201l491 264l109 -242z" />
    <glyph glyph-name="Ocircumflex" unicode="&#xd4;" horiz-adv-x="1742" 
d="M1436 196c-155.333 -150 -344.669 -224.999 -568.002 -224.999c-217.333 0 -403.666 73.667 -558.999 221c-158.667 149.333 -238 331.666 -238 546.999c0 114.667 19.667 222.667 59 324c20.667 54 53.667 110.667 99 170c157.333 207.333 371 311 641 311
c222.667 0 411.334 -75.333 566.001 -226c156 -151.333 234 -338 234 -560c0 -222.667 -78 -410 -234 -562zM1171 1068c-79.333 90.667 -179 136 -299 136c-121.333 0 -221.333 -44 -300 -132c-76 -84.667 -114 -188 -114 -310c0 -124.667 38.333 -230 115 -316
c79.333 -90 180.333 -135 303 -135c118 0 216.333 45.333 295 136c74.667 86 112 189 112 309c0 122 -37.333 226 -112 312zM965.997 1649l-94 118l-94 -118h-332l319 340h221l308 -340h-328z" />
    <glyph glyph-name="Otilde" unicode="&#xd5;" horiz-adv-x="1742" 
d="M1436 196c-155.333 -150 -344.669 -224.999 -568.002 -224.999c-217.333 0 -403.666 73.667 -558.999 221c-158.667 149.333 -238 331.666 -238 546.999c0 114.667 19.667 222.667 59 324c20.667 54 53.667 110.667 99 170c157.333 207.333 371 311 641 311
c222.667 0 411.334 -75.333 566.001 -226c156 -151.333 234 -338 234 -560c0 -222.667 -78 -410 -234 -562zM1171 1068c-79.333 90.667 -179 136 -299 136c-121.333 0 -221.333 -44 -300 -132c-76 -84.667 -114 -188 -114 -310c0 -124.667 38.333 -230 115 -316
c79.333 -90 180.333 -135 303 -135c118 0 216.333 45.333 295 136c74.667 86 112 189 112 309c0 122 -37.333 226 -112 312zM1285 1739c-80 -50.667 -157.001 -76 -231.001 -76c-22.667 0 -49.667 2.66699 -81 8l-168 37c-30.667 5.33301 -57 8 -79 8c-24 0 -49 -4 -75 -12
l-72 -27l-123 181c38 21.333 74 38 108 50c41.333 14 80.333 21 117 21c25.333 0 53.333 -2.66699 84 -8c12 -2 25.667 -4.66699 41 -8l82 -19c15.333 -3.33301 29.333 -6 42 -8c30.667 -5.33301 58.334 -8 83.001 -8c44.667 0 94.667 11.667 150 35z" />
    <glyph glyph-name="Ugrave" unicode="&#xd9;" horiz-adv-x="1429" 
d="M1296 600c0 -103.333 -8.66895 -187.002 -26.002 -251.002c-23.333 -82 -65 -153.333 -125 -214c-107.333 -109.333 -248.666 -164 -423.999 -164c-85.333 0 -164 12.333 -236 37c-81.333 28 -148 69.667 -200 125c-64 67.333 -106.667 139.333 -128 216
c-9.33301 34.667 -16 73.667 -20 117c-2.66699 34.667 -4 79.334 -4 134.001v916h387v-916c0 -40 2 -74.333 6 -103c5.33301 -36.667 14.333 -67.667 27 -93c30.667 -62 85.334 -93 164.001 -93c81.333 0 136 30.333 164 91c11.333 24.667 19.333 55.334 24 92.001
c2.66699 26.667 4 62 4 106v916h387v-916zM808.998 1589l-506 221l104 240l496 -262z" />
    <glyph glyph-name="Uacute" unicode="&#xda;" horiz-adv-x="1429" 
d="M1296 600c0 -103.333 -8.66895 -187.002 -26.002 -251.002c-23.333 -82 -65 -153.333 -125 -214c-107.333 -109.333 -248.666 -164 -423.999 -164c-85.333 0 -164 12.333 -236 37c-81.333 28 -148 69.667 -200 125c-64 67.333 -106.667 139.333 -128 216
c-9.33301 34.667 -16 73.667 -20 117c-2.66699 34.667 -4 79.334 -4 134.001v916h387v-916c0 -40 2 -74.333 6 -103c5.33301 -36.667 14.333 -67.667 27 -93c30.667 -62 85.334 -93 164.001 -93c81.333 0 136 30.333 164 91c11.333 24.667 19.333 55.334 24 92.001
c2.66699 26.667 4 62 4 106v916h387v-916zM624.998 1589l-97 201l492 264l108 -242z" />
    <glyph glyph-name="Yacute" unicode="&#xdd;" horiz-adv-x="1325" 
d="M858 551v-551h-387v551l-453 965h420l225 -609l227 609h416zM624 1589l-96 201l491 264l109 -242z" />
    <glyph glyph-name="agrave" unicode="&#xe0;" horiz-adv-x="1441" 
d="M976 0l0.000976562 123h-4c-28.667 -54.667 -76.334 -96.334 -143.001 -125.001c-57.333 -24.667 -120.333 -37 -189 -37c-171.333 0 -310.333 59 -417 177c-102.667 114.667 -154 258.334 -154 431.001c0 170 52.333 312.667 157 428
c108.667 119.333 246.667 179 414 179c68 0 130.667 -12.667 188 -38c64 -28 112 -68.667 144 -122h4v121h340v-1137h-340zM895.001 776c-54 54.667 -122.332 81.999 -204.999 81.999c-82 0 -149.667 -28.667 -203 -86c-52 -55.333 -78 -124.333 -78 -207
c0 -79.333 27 -146.666 81 -201.999c55.333 -56 122.666 -84 201.999 -84c82 0 150 27.667 204 83c53.333 55.333 80 124.333 80 207c0 83.333 -27 152.333 -81 207zM886.002 1257l-506 222l105 239l495 -262z" />
    <glyph glyph-name="aacute" unicode="&#xe1;" horiz-adv-x="1441" 
d="M976 0l0.000976562 123h-4c-28.667 -54.667 -76.334 -96.334 -143.001 -125.001c-57.333 -24.667 -120.333 -37 -189 -37c-171.333 0 -310.333 59 -417 177c-102.667 114.667 -154 258.334 -154 431.001c0 170 52.333 312.667 157 428
c108.667 119.333 246.667 179 414 179c68 0 130.667 -12.667 188 -38c64 -28 112 -68.667 144 -122h4v121h340v-1137h-340zM895.001 776c-54 54.667 -122.332 81.999 -204.999 81.999c-82 0 -149.667 -28.667 -203 -86c-52 -55.333 -78 -124.333 -78 -207
c0 -79.333 27 -146.666 81 -201.999c55.333 -56 122.666 -84 201.999 -84c82 0 150 27.667 204 83c53.333 55.333 80 124.333 80 207c0 83.333 -27 152.333 -81 207zM558.002 1272l-96 201l492 264l108 -242z" />
    <glyph glyph-name="acircumflex" unicode="&#xe2;" horiz-adv-x="1441" 
d="M976 0l0.000976562 123h-4c-28.667 -54.667 -76.334 -96.334 -143.001 -125.001c-57.333 -24.667 -120.333 -37 -189 -37c-171.333 0 -310.333 59 -417 177c-102.667 114.667 -154 258.334 -154 431.001c0 170 52.333 312.667 157 428
c108.667 119.333 246.667 179 414 179c68 0 130.667 -12.667 188 -38c64 -28 112 -68.667 144 -122h4v121h340v-1137h-340zM895.001 776c-54 54.667 -122.332 81.999 -204.999 81.999c-82 0 -149.667 -28.667 -203 -86c-52 -55.333 -78 -124.333 -78 -207
c0 -79.333 27 -146.666 81 -201.999c55.333 -56 122.666 -84 201.999 -84c82 0 150 27.667 204 83c53.333 55.333 80 124.333 80 207c0 83.333 -27 152.333 -81 207zM817.002 1311l-95 119l-94 -119h-332l320 340h221l307 -340h-327z" />
    <glyph glyph-name="atilde" unicode="&#xe3;" horiz-adv-x="1441" 
d="M976 0l0.000976562 123h-4c-28.667 -54.667 -76.334 -96.334 -143.001 -125.001c-57.333 -24.667 -120.333 -37 -189 -37c-171.333 0 -310.333 59 -417 177c-102.667 114.667 -154 258.334 -154 431.001c0 170 52.333 312.667 157 428
c108.667 119.333 246.667 179 414 179c68 0 130.667 -12.667 188 -38c64 -28 112 -68.667 144 -122h4v121h340v-1137h-340zM895.001 776c-54 54.667 -122.332 81.999 -204.999 81.999c-82 0 -149.667 -28.667 -203 -86c-52 -55.333 -78 -124.333 -78 -207
c0 -79.333 27 -146.666 81 -201.999c55.333 -56 122.666 -84 201.999 -84c82 0 150 27.667 204 83c53.333 55.333 80 124.333 80 207c0 83.333 -27 152.333 -81 207zM1136 1409c-80.667 -50.667 -157.669 -76 -231.002 -76c-23.333 0 -50.333 3 -81 9l-169 36
c-30 5.33301 -56 8 -78 8c-24.667 0 -49.667 -3.66699 -75 -11l-73 -27l-122 180c38 22 74 38.667 108 50c40.667 14 79.667 21 117 21c24.667 0 52.334 -2.66699 83.001 -8c12.667 -2 26.667 -4.66699 42 -8l82 -19c15.333 -3.33301 29 -6 41 -8
c30.667 -5.33301 58.667 -8 84 -8c44.667 0 94.334 11.667 149.001 35z" />
    <glyph glyph-name="egrave" unicode="&#xe8;" horiz-adv-x="1323" 
d="M1249 465l-851.999 -0.000976562c21.333 -143.333 110 -215 266 -215c81.333 0 150.333 35.333 207 106h348c-50.667 -118 -123.334 -212 -218.001 -282c-100.667 -74 -213 -111 -337 -111c-166 0 -307.667 59 -425 177c-118 117.333 -177 259 -177 425
c0 166.667 57.667 309.667 173 429c116.667 121.333 257.667 182 423 182c172 0 315.667 -60.667 431 -182c112.667 -119.333 169 -265.666 169 -438.999c0 -32.667 -2.66699 -62.667 -8 -90zM917.001 693.999c-28 130 -114 195 -258 195s-230 -65 -258 -195h516z
M827.001 1257l-506 222l105 239l495 -262z" />
    <glyph glyph-name="eacute" unicode="&#xe9;" horiz-adv-x="1323" 
d="M1249 465l-851.999 -0.000976562c21.333 -143.333 110 -215 266 -215c81.333 0 150.333 35.333 207 106h348c-50.667 -118 -123.334 -212 -218.001 -282c-100.667 -74 -213 -111 -337 -111c-166 0 -307.667 59 -425 177c-118 117.333 -177 259 -177 425
c0 166.667 57.667 309.667 173 429c116.667 121.333 257.667 182 423 182c172 0 315.667 -60.667 431 -182c112.667 -119.333 169 -265.666 169 -438.999c0 -32.667 -2.66699 -62.667 -8 -90zM917.001 693.999c-28 130 -114 195 -258 195s-230 -65 -258 -195h516z
M499.001 1272l-96 201l492 264l108 -242z" />
    <glyph glyph-name="ecircumflex" unicode="&#xea;" horiz-adv-x="1323" 
d="M1249 465l-851.999 -0.000976562c21.333 -143.333 110 -215 266 -215c81.333 0 150.333 35.333 207 106h348c-50.667 -118 -123.334 -212 -218.001 -282c-100.667 -74 -213 -111 -337 -111c-166 0 -307.667 59 -425 177c-118 117.333 -177 259 -177 425
c0 166.667 57.667 309.667 173 429c116.667 121.333 257.667 182 423 182c172 0 315.667 -60.667 431 -182c112.667 -119.333 169 -265.666 169 -438.999c0 -32.667 -2.66699 -62.667 -8 -90zM917.001 693.999c-28 130 -114 195 -258 195s-230 -65 -258 -195h516z
M757.001 1311l-94 119l-94 -119h-332l320 340h221l307 -340h-328z" />
    <glyph glyph-name="igrave" unicode="&#xec;" horiz-adv-x="585" 
d="M123 0v1137h340v-1137h-340zM408 1257l-506 222l104 239l496 -262z" />
    <glyph glyph-name="iacute" unicode="&#xed;" horiz-adv-x="585" 
d="M123 0v1137h340v-1137h-340zM182 1272l-96 201l492 264l108 -242z" />
    <glyph glyph-name="ograve" unicode="&#xf2;" horiz-adv-x="1363" 
d="M1118 137c-116.667 -114.667 -262.334 -172 -437.001 -172s-320 57.333 -436 172c-117.333 114.667 -176 258.667 -176 432c0 174 58.667 318.333 176 433c116 114.667 261.333 172 436 172s320.334 -57.333 437.001 -172c117.333 -114.667 176 -259 176 -433
c0 -173.333 -58.667 -317.333 -176 -432zM877 770c-52.667 57.333 -118 86 -196 86c-77.333 0 -142.333 -28.667 -195 -86c-51.333 -55.333 -77 -122.333 -77 -201c0 -78 25.667 -145 77 -201c52.667 -56.667 117.667 -85 195 -85c78 0 143.333 28.333 196 85
c51.333 56 77 123 77 201c0 78.667 -25.667 145.667 -77 201zM847 1257l-506 222l105 239l495 -262z" />
    <glyph glyph-name="oacute" unicode="&#xf3;" horiz-adv-x="1363" 
d="M1118 137c-116.667 -114.667 -262.334 -172 -437.001 -172s-320 57.333 -436 172c-117.333 114.667 -176 258.667 -176 432c0 174 58.667 318.333 176 433c116 114.667 261.333 172 436 172s320.334 -57.333 437.001 -172c117.333 -114.667 176 -259 176 -433
c0 -173.333 -58.667 -317.333 -176 -432zM877 770c-52.667 57.333 -118 86 -196 86c-77.333 0 -142.333 -28.667 -195 -86c-51.333 -55.333 -77 -122.333 -77 -201c0 -78 25.667 -145 77 -201c52.667 -56.667 117.667 -85 195 -85c78 0 143.333 28.333 196 85
c51.333 56 77 123 77 201c0 78.667 -25.667 145.667 -77 201zM520 1272l-97 201l492 264l108 -242z" />
    <glyph glyph-name="ocircumflex" unicode="&#xf4;" horiz-adv-x="1363" 
d="M1118 137c-116.667 -114.667 -262.334 -172 -437.001 -172s-320 57.333 -436 172c-117.333 114.667 -176 258.667 -176 432c0 174 58.667 318.333 176 433c116 114.667 261.333 172 436 172s320.334 -57.333 437.001 -172c117.333 -114.667 176 -259 176 -433
c0 -173.333 -58.667 -317.333 -176 -432zM877 770c-52.667 57.333 -118 86 -196 86c-77.333 0 -142.333 -28.667 -195 -86c-51.333 -55.333 -77 -122.333 -77 -201c0 -78 25.667 -145 77 -201c52.667 -56.667 117.667 -85 195 -85c78 0 143.333 28.333 196 85
c51.333 56 77 123 77 201c0 78.667 -25.667 145.667 -77 201zM778 1311l-95 119l-94 -119h-332l320 340h221l307 -340h-327z" />
    <glyph glyph-name="otilde" unicode="&#xf5;" horiz-adv-x="1363" 
d="M1118 137c-116.667 -114.667 -262.334 -172 -437.001 -172s-320 57.333 -436 172c-117.333 114.667 -176 258.667 -176 432c0 174 58.667 318.333 176 433c116 114.667 261.333 172 436 172s320.334 -57.333 437.001 -172c117.333 -114.667 176 -259 176 -433
c0 -173.333 -58.667 -317.333 -176 -432zM877 770c-52.667 57.333 -118 86 -196 86c-77.333 0 -142.333 -28.667 -195 -86c-51.333 -55.333 -77 -122.333 -77 -201c0 -78 25.667 -145 77 -201c52.667 -56.667 117.667 -85 195 -85c78 0 143.333 28.333 196 85
c51.333 56 77 123 77 201c0 78.667 -25.667 145.667 -77 201zM1097 1409c-80 -50.667 -157.002 -76 -231.002 -76c-23.333 0 -50.333 3 -81 9l-169 36c-30 5.33301 -56 8 -78 8c-24.667 0 -49.667 -3.66699 -75 -11l-72 -27l-123 180c38 22 74 38.667 108 50
c40.667 14 79.667 21 117 21c24.667 0 52.334 -2.66699 83.001 -8c12.667 -2 26.667 -4.66699 42 -8l82 -19c15.333 -3.33301 29 -6 41 -8c30.667 -5.33301 58.667 -8 84 -8c44.667 0 94.334 11.667 149.001 35z" />
    <glyph glyph-name="divide" unicode="&#xf7;" horiz-adv-x="1706" 
 />
    <glyph glyph-name="glyph216" unicode="&#xf9;" horiz-adv-x="1298" 
d="M853 0v121.001h-4c-28 -58 -68.667 -99.667 -122 -125c-46 -22 -103.667 -33 -173 -33c-144.667 0 -256 47.667 -334 143c-42.667 53.333 -71 108.666 -85 165.999c-11.333 43.333 -17 105 -17 185v680h340v-629c0 -73.333 11.333 -127.333 34 -162
c28 -43.333 77.333 -65 148 -65c130 0 195 77 195 231v625h340v-1137h-322zM743 1257l-506 222l104 239l496 -262z" />
    <glyph glyph-name="glyph217" unicode="&#xfa;" horiz-adv-x="1298" 
d="M853 0v121.001h-4c-28 -58 -68.667 -99.667 -122 -125c-46 -22 -103.667 -33 -173 -33c-144.667 0 -256 47.667 -334 143c-42.667 53.333 -71 108.666 -85 165.999c-11.333 43.333 -17 105 -17 185v680h340v-629c0 -73.333 11.333 -127.333 34 -162
c28 -43.333 77.333 -65 148 -65c130 0 195 77 195 231v625h340v-1137h-322zM558 1272l-96 201l492 264l108 -242z" />
    <glyph glyph-name="glyph234" unicode="&#xfd;" horiz-adv-x="1175" 
d="M604 -379h-360l180 436l-422 1080h362l228 -660h4l217 660h360zM498 1272l-97 201l492 264l108 -242z" />
    <glyph glyph-name="Abreve" unicode="&#x102;" 
d="M1114 0l-74 219h-526l-80 -219h-416l608 1516h305l603 -1516h-420zM782 1044h-6l-156 -518h318zM1198 1927c-6.66699 -103.333 -54.666 -180.666 -143.999 -231.999c-74 -42 -166.667 -63 -278 -63c-113.333 0 -206.333 21 -279 63
c-88 51.333 -135.667 128.666 -143 231.999h231c24.667 -30 55 -50 91 -60c25.333 -8 62 -12 110 -12c39.333 0 72.666 4.66699 99.999 14c36 12 62.667 31.333 80 58h232z" />
    <glyph glyph-name="abreve" unicode="&#x103;" horiz-adv-x="1441" 
d="M976 0l0.000976562 123h-4c-28.667 -54.667 -76.334 -96.334 -143.001 -125.001c-57.333 -24.667 -120.333 -37 -189 -37c-171.333 0 -310.333 59 -417 177c-102.667 114.667 -154 258.334 -154 431.001c0 170 52.333 312.667 157 428
c108.667 119.333 246.667 179 414 179c68 0 130.667 -12.667 188 -38c64 -28 112 -68.667 144 -122h4v121h340v-1137h-340zM895.001 776c-54 54.667 -122.332 81.999 -204.999 81.999c-82 0 -149.667 -28.667 -203 -86c-52 -55.333 -78 -124.333 -78 -207
c0 -79.333 27 -146.666 81 -201.999c55.333 -56 122.666 -84 201.999 -84c82 0 150 27.667 204 83c53.333 55.333 80 124.333 80 207c0 83.333 -27 152.333 -81 207zM1198 1594c-6.66699 -103.333 -54.666 -180.666 -143.999 -231.999c-73.333 -42 -166 -63 -278 -63
c-112.667 0 -205.334 21 -278.001 63c-88 51.333 -136 128.666 -144 231.999h232c24 -30 54 -50 90 -60c26 -8 62.667 -12 110 -12c39.333 0 73 4.66699 101 14c35.333 12 62 31.333 80 58h231z" />
    <glyph glyph-name="Ccaron" unicode="&#x10c;" horiz-adv-x="1274" 
 />
    <glyph glyph-name="ccaron" unicode="&#x10d;" horiz-adv-x="922" 
 />
    <glyph glyph-name="Dslash" unicode="&#x110;" horiz-adv-x="1581" 
d="M1314 210c-133.333 -140 -314.668 -210 -544.001 -210h-572v606h-137v340h137v570h510c74 0 139 -4 195 -12c64.667 -8 122.667 -21.667 174 -41c114.667 -43.333 212.334 -120 293.001 -230c92.667 -128.667 139 -285.667 139 -471c0 -230.667 -65 -414.667 -195 -552z
M1034 1056c-63.333 80 -157 120 -281 120h-168v-230h221v-340h-221v-266h166c126.667 0 221.667 38.667 285 116c57.333 70.667 86 170.667 86 300c0 127.333 -29.333 227.333 -88 300z" />
    <glyph glyph-name="dcroat" unicode="&#x111;" horiz-adv-x="1429" 
d="M903 777c-54.667 54 -123 81 -205 81c-82.667 0 -151.334 -26.667 -206.001 -80c-55.333 -54 -83 -122.333 -83 -205c0 -84 26.333 -153.333 79 -208c53.333 -56 122 -84 206 -84c84.667 0 154.334 27.667 209.001 83c54 55.333 81 125 81 209c0 82 -27 150 -81 204z
M1306 1219l-0.000976562 -1219h-324v123h-4c-33.333 -56.667 -82.333 -98.334 -147 -125.001c-54.667 -23.333 -119 -35 -193 -35c-170 0 -308.333 59.333 -415 178c-102.667 114.667 -154 258 -154 430c0 169.333 51 311.333 153 426
c106.667 119.333 243.334 179 410.001 179c134.667 0 246 -45.333 334 -136v179h-224v201h224v96h340v-96h97v-201h-97z" />
    <glyph glyph-name="Itilde" unicode="&#x128;" horiz-adv-x="661" 
d="M137 0v1516h387v-1516h-387zM764 1739c-80 -50.667 -157.001 -76 -231.001 -76c-22.667 0 -49.667 2.66699 -81 8l-168 37c-30.667 5.33301 -57 8 -79 8c-24 0 -49 -4 -75 -12l-72 -27l-123 181c38 21.333 74 38 108 50c41.333 14 80.333 21 117 21
c25.333 0 53.333 -2.66699 84 -8c12 -2 25.667 -4.66699 41 -8l82 -19c15.333 -3.33301 29.333 -6 42 -8c30.667 -5.33301 58.334 -8 83.001 -8c44.667 0 94.667 11.667 150 35z" />
    <glyph glyph-name="itilde" unicode="&#x129;" horiz-adv-x="585" 
d="M122 0v1137h340v-1137h-340zM711 1317c-80 -50.667 -157.001 -76 -231.001 -76c-22.667 0 -49.667 3 -81 9l-168 36c-30.667 5.33301 -57 8 -79 8c-24 0 -49 -3.66699 -75 -11l-72 -27l-123 180c38 22 74 38.667 108 50c41.333 14 80.333 21 117 21
c25.333 0 53.333 -2.66699 84 -8c12 -2 25.667 -4.66699 41 -8l82 -19c15.333 -3.33301 29.333 -6 42 -8c30.667 -5.33301 58.334 -8 83.001 -8c44.667 0 94.667 11.667 150 35z" />
    <glyph glyph-name="Utilde" unicode="&#x168;" horiz-adv-x="1429" 
d="M1296 600c0 -103.333 -8.66895 -187.002 -26.002 -251.002c-23.333 -82 -65 -153.333 -125 -214c-107.333 -109.333 -248.666 -164 -423.999 -164c-85.333 0 -164 12.333 -236 37c-81.333 28 -148 69.667 -200 125c-64 67.333 -106.667 139.333 -128 216
c-9.33301 34.667 -16 73.667 -20 117c-2.66699 34.667 -4 79.334 -4 134.001v916h387v-916c0 -40 2 -74.333 6 -103c5.33301 -36.667 14.333 -67.667 27 -93c30.667 -62 85.334 -93 164.001 -93c81.333 0 136 30.333 164 91c11.333 24.667 19.333 55.334 24 92.001
c2.66699 26.667 4 62 4 106v916h387v-916zM1110 1739c-80.667 -50.667 -157.669 -76 -231.002 -76c-23.333 0 -50.333 2.66699 -81 8l-169 37c-30 5.33301 -56 8 -78 8c-24.667 0 -49.667 -4 -75 -12l-73 -27l-122 181c38 21.333 74 38 108 50c40.667 14 79.667 21 117 21
c24.667 0 52.334 -2.66699 83.001 -8c12.667 -2 26.667 -4.66699 42 -8l82 -19c15.333 -3.33301 29 -6 41 -8c30.667 -5.33301 58.667 -8 84 -8c44.667 0 94.334 11.667 149.001 35z" />
    <glyph glyph-name="utilde" unicode="&#x169;" horiz-adv-x="1298" 
d="M853 0v121.001h-4c-28 -58 -68.667 -99.667 -122 -125c-46 -22 -103.667 -33 -173 -33c-144.667 0 -256 47.667 -334 143c-42.667 53.333 -71 108.666 -85 165.999c-11.333 43.333 -17 105 -17 185v680h340v-629c0 -73.333 11.333 -127.333 34 -162
c28 -43.333 77.333 -65 148 -65c130 0 195 77 195 231v625h340v-1137h-322zM1097 1409c-80.667 -50.667 -157.669 -76 -231.002 -76c-23.333 0 -50.333 3 -81 9l-169 36c-30 5.33301 -56 8 -78 8c-24.667 0 -49.667 -3.66699 -75 -11l-73 -27l-122 180
c38 22 74 38.667 108 50c40.667 14 79.667 21 117 21c24.667 0 52.334 -2.66699 83.001 -8c12.667 -2 26.667 -4.66699 42 -8l82 -19c15.333 -3.33301 29 -6 41 -8c30.667 -5.33301 58.667 -8 84 -8c44.667 0 94.334 11.667 149.001 35z" />
    <glyph glyph-name="Ohorn" unicode="&#x1a0;" horiz-adv-x="1742" 
d="M1170 1068c-78.667 90.667 -178.331 136 -298.998 136s-220.334 -44 -299.001 -132c-76 -84.667 -114 -188 -114 -310c0 -124.667 38 -230 114 -316c79.333 -90 180.666 -135 303.999 -135c118 0 216.333 45.333 295 136c74.667 86 112 189 112 309
c0 122 -37.667 226 -113 312zM1478 1274c128 -143.333 191.999 -315.332 191.999 -515.999c0 -222.667 -78.333 -410 -235 -562c-154.667 -150 -344 -225 -568 -225c-216.667 0 -402.667 73.667 -558 221c-158.667 149.333 -238 331.666 -238 546.999
c0 114.667 19.667 222.667 59 324c20.667 54 53.334 110.667 98.001 170c158 207.333 371.667 311 641 311c188 0 352 -53.667 492 -161l21 8c69.333 34 104 83.667 104 149h-80v228h229v-235c-9.33301 -96.667 -41 -168.667 -95 -216c-20 -16.667 -40.667 -31 -62 -43z" />
    <glyph glyph-name="ohorn" unicode="&#x1a1;" horiz-adv-x="1363" 
d="M876 770c-52.667 57.333 -117.667 86 -195 86s-142.333 -28.667 -195 -86c-51.333 -55.333 -77 -122.333 -77 -201c0 -78 25.667 -145 77 -201c52.667 -56.667 117.667 -85 195 -85s142.333 28.333 195 85c51.333 56 77 123 77 201c0 78.667 -25.667 145.667 -77 201z
M1180 931c75.333 -101.333 113.001 -222 113.001 -362c0 -173.333 -58.333 -317.333 -175 -432s-262.334 -172 -437.001 -172s-320.334 57.333 -437.001 172s-175 258.667 -175 432c0 174 58.333 318.333 175 433s262.334 172 437.001 172c154 0 285.333 -44.333 394 -133
c50 32.667 75 76.667 75 132h-80v228h229v-235c-9.33301 -96.667 -41 -168.667 -95 -216c-8 -6.66699 -16 -13 -24 -19z" />
    <glyph glyph-name="Uhorn" unicode="&#x1af;" horiz-adv-x="1429" 
d="M1296 600c0 -103.333 -8.66895 -187.002 -26.002 -251.002c-23.333 -82 -65 -153.333 -125 -214c-107.333 -109.333 -248.666 -164 -423.999 -164c-85.333 0 -164 12.333 -236 37c-81.333 28 -148 69.667 -200 125c-64 67.333 -106.667 139.333 -128 216
c-9.33301 34.667 -16 73.667 -20 117c-2.66699 34.667 -4 79.334 -4 134.001v916h387v-916c0 -40 2 -74.333 6 -103c5.33301 -36.667 14.333 -67.667 27 -93c30.667 -62 85.334 -93 164.001 -93c81.333 0 136 30.333 164 91c11.333 24.667 19.333 55.334 24 92.001
c2.66699 26.667 4 62 4 106v916h387v-916zM1257 1768h228.999v-235c-9.33301 -96.667 -41.166 -168.667 -95.499 -216s-115.833 -75 -184.5 -83l-99 -8l7 144l39 -1c16 0.666992 42.667 8 80 22c69.333 34 104 83.667 104 149h-80v228z" />
    <glyph glyph-name="uhorn" unicode="&#x1b0;" horiz-adv-x="1298" 
d="M853 0v121.001h-4c-28 -58 -68.667 -99.667 -122 -125c-46 -22 -103.667 -33 -173 -33c-144.667 0 -256 47.667 -334 143c-42.667 53.333 -71 108.666 -85 165.999c-11.333 43.333 -17 105 -17 185v680h340v-629c0 -73.333 11.333 -127.333 34 -162
c28 -43.333 77.333 -65 148 -65c130 0 195 77 195 231v625h340v-1137h-322zM1172 1401h228.999v-235c-9.33301 -96.667 -41.166 -168.667 -95.499 -216s-115.833 -75 -184.5 -83l-99 -8l7 144l39 -1c16 0.666992 42.667 8 80 22c69.333 34 104 83.667 104 149h-80v228z" />
    <glyph glyph-name="uni1EA0" unicode="&#x1ea0;" 
d="M1114 0l-74 219h-526l-80 -219h-416l608 1516h305l603 -1516h-420zM782 1044h-6l-156 -518h318zM613 -491v309h326v-309h-326z" />
    <glyph glyph-name="uni1EA1" unicode="&#x1ea1;" horiz-adv-x="1441" 
d="M976 0l0.000976562 123h-4c-28.667 -54.667 -76.334 -96.334 -143.001 -125.001c-57.333 -24.667 -120.333 -37 -189 -37c-171.333 0 -310.333 59 -417 177c-102.667 114.667 -154 258.334 -154 431.001c0 170 52.333 312.667 157 428
c108.667 119.333 246.667 179 414 179c68 0 130.667 -12.667 188 -38c64 -28 112 -68.667 144 -122h4v121h340v-1137h-340zM895.001 776c-54 54.667 -122.332 81.999 -204.999 81.999c-82 0 -149.667 -28.667 -203 -86c-52 -55.333 -78 -124.333 -78 -207
c0 -79.333 27 -146.666 81 -201.999c55.333 -56 122.666 -84 201.999 -84c82 0 150 27.667 204 83c53.333 55.333 80 124.333 80 207c0 83.333 -27 152.333 -81 207zM588.002 -491.001v309h326v-309h-326z" />
    <glyph glyph-name="uni1EA2" unicode="&#x1ea2;" 
d="M1114 0l-74 219h-526l-80 -219h-416l608 1516h305l603 -1516h-420zM782 1044h-6l-156 -518h318zM1022 1821c-8 -12.667 -17.668 -25.666 -29.001 -38.999c-9.33301 -10.667 -20.666 -22.334 -33.999 -35.001l-34 -32c-13.333 -12 -23.666 -22.333 -30.999 -31
c-20.667 -23.333 -31.667 -46 -33 -68h-174c0 30.667 9 60.667 27 90c7.33301 11.333 16.666 23.333 27.999 36c8 9.33301 18.333 20.333 31 33l32 31c11.333 12 20.333 22.333 27 31c18 22.667 27 44.334 27 65.001c0 41.333 -19.333 62 -58 62c-28 0 -47 -10 -57 -30
c-8 -13.333 -12 -35.333 -12 -66h-183c-0.666992 2.66699 -1 5.66699 -1 9v9c0 73.333 25.333 133.666 76 180.999c50 45.333 112.333 68 187 68c101.333 0 173.333 -40 216 -120c16 -30 24 -60.667 24 -92c0 -36.667 -9.66699 -70.667 -29 -102z" />
    <glyph glyph-name="uni1EA3" unicode="&#x1ea3;" horiz-adv-x="1441" 
d="M976 0l0.000976562 123h-4c-28.667 -54.667 -76.334 -96.334 -143.001 -125.001c-57.333 -24.667 -120.333 -37 -189 -37c-171.333 0 -310.333 59 -417 177c-102.667 114.667 -154 258.334 -154 431.001c0 170 52.333 312.667 157 428
c108.667 119.333 246.667 179 414 179c68 0 130.667 -12.667 188 -38c64 -28 112 -68.667 144 -122h4v121h340v-1137h-340zM895.001 776c-54 54.667 -122.332 81.999 -204.999 81.999c-82 0 -149.667 -28.667 -203 -86c-52 -55.333 -78 -124.333 -78 -207
c0 -79.333 27 -146.666 81 -201.999c55.333 -56 122.666 -84 201.999 -84c82 0 150 27.667 204 83c53.333 55.333 80 124.333 80 207c0 83.333 -27 152.333 -81 207zM928.002 1487c-8 -12.667 -17.666 -25.666 -28.999 -38.999
c-9.33301 -10.667 -20.666 -22.334 -33.999 -35.001l-35 -32c-12.667 -12 -22.667 -22.333 -30 -31c-20.667 -23.333 -32 -46 -34 -68h-174c0.666992 30.667 10 60.667 28 90c7.33301 11.333 16.666 23.333 27.999 36c8 9.33301 18.333 20.333 31 33l31 31
c11.333 12 20.666 22.333 27.999 31c17.333 22.667 26 44.334 26 65.001c0 41.333 -19.333 62 -58 62c-27.333 0 -46.333 -10 -57 -30c-7.33301 -13.333 -11.333 -35.333 -12 -66h-183c0 2.66699 -0.333008 5.66699 -1 9v9c0 73.333 25.667 133.666 77 180.999
c50 45.333 112 68 186 68c102 0 174 -40 216 -120c16 -30 24 -60.667 24 -92c0 -36.667 -9.33301 -70.667 -28 -102z" />
    <glyph glyph-name="uni1EA4" unicode="&#x1ea4;" 
d="M1114 0l-74 219h-526l-80 -219h-416l608 1516h305l603 -1516h-420zM782 1044h-6l-156 -518h318zM1115 1849l-96 201l491 264l109 -242zM872 1649l-94 118l-94 -118h-332l319 340h221l308 -340h-328z" />
    <glyph glyph-name="uni1EA5" unicode="&#x1ea5;" horiz-adv-x="1441" 
d="M976 0l0.000976562 123h-4c-28.667 -54.667 -76.334 -96.334 -143.001 -125.001c-57.333 -24.667 -120.333 -37 -189 -37c-171.333 0 -310.333 59 -417 177c-102.667 114.667 -154 258.334 -154 431.001c0 170 52.333 312.667 157 428
c108.667 119.333 246.667 179 414 179c68 0 130.667 -12.667 188 -38c64 -28 112 -68.667 144 -122h4v121h340v-1137h-340zM895.001 776c-54 54.667 -122.332 81.999 -204.999 81.999c-82 0 -149.667 -28.667 -203 -86c-52 -55.333 -78 -124.333 -78 -207
c0 -79.333 27 -146.666 81 -201.999c55.333 -56 122.666 -84 201.999 -84c82 0 150 27.667 204 83c53.333 55.333 80 124.333 80 207c0 83.333 -27 152.333 -81 207zM1111 1524l-96 201l492 264l108 -242zM817.002 1311l-95 119l-94 -119h-332l320 340h221l307 -340h-327z
" />
    <glyph glyph-name="uni1EA6" unicode="&#x1ea6;" 
d="M1114 0l-74 219h-526l-80 -219h-416l608 1516h305l603 -1516h-420zM782 1044h-6l-156 -518h318zM1099 1950l-506 221l104 240l496 -262zM872 1649l-94 118l-94 -118h-332l319 340h221l308 -340h-328z" />
    <glyph glyph-name="uni1EA7" unicode="&#x1ea7;" horiz-adv-x="1441" 
d="M976 0l0.000976562 123h-4c-28.667 -54.667 -76.334 -96.334 -143.001 -125.001c-57.333 -24.667 -120.333 -37 -189 -37c-171.333 0 -310.333 59 -417 177c-102.667 114.667 -154 258.334 -154 431.001c0 170 52.333 312.667 157 428
c108.667 119.333 246.667 179 414 179c68 0 130.667 -12.667 188 -38c64 -28 112 -68.667 144 -122h4v121h340v-1137h-340zM895.001 776c-54 54.667 -122.332 81.999 -204.999 81.999c-82 0 -149.667 -28.667 -203 -86c-52 -55.333 -78 -124.333 -78 -207
c0 -79.333 27 -146.666 81 -201.999c55.333 -56 122.666 -84 201.999 -84c82 0 150 27.667 204 83c53.333 55.333 80 124.333 80 207c0 83.333 -27 152.333 -81 207zM1060 1641l-506 222l105 239l495 -262zM817.002 1311l-95 119l-94 -119h-332l320 340h221l307 -340h-327z
" />
    <glyph glyph-name="uni1EA8" unicode="&#x1ea8;" 
d="M1114 0l-74 219h-526l-80 -219h-416l608 1516h305l603 -1516h-420zM782 1044h-6l-156 -518h318zM1319 2146c-8 -12.667 -17.668 -25.665 -29.001 -38.998c-9.33301 -10.667 -20.666 -22.334 -33.999 -35.001l-34 -32c-13.333 -12 -23.666 -22.333 -30.999 -31
c-20.667 -23.333 -31.667 -46 -33 -68h-174c0 30.667 9 60.667 27 90c7.33301 11.333 16.666 23.333 27.999 35.999c8 9.33301 18.333 20.333 31 33l32 31c11.333 12 20.333 22.333 27 31c18 22.667 27 44.334 27 65c0 41.333 -19.333 62 -58 62c-28 0 -47 -10 -57 -30
c-8 -13.333 -12 -35.333 -12 -66h-183c-0.666992 2.66699 -1 5.66699 -1 9v9c0 73.333 25.333 133.666 76 181c50 45.333 112.333 68 187 68c101.333 0 173.333 -40 216 -120c16 -30 24 -60.667 24 -92c0 -36.667 -9.66699 -70.667 -29 -102zM871.999 1649l-94 118l-94 -118
h-332l319 340h221l308 -340h-328z" />
    <glyph glyph-name="uni1EA9" unicode="&#x1ea9;" horiz-adv-x="1441" 
d="M976 0l0.000976562 123h-4c-28.667 -54.667 -76.334 -96.334 -143.001 -125.001c-57.333 -24.667 -120.333 -37 -189 -37c-171.333 0 -310.333 59 -417 177c-102.667 114.667 -154 258.334 -154 431.001c0 170 52.333 312.667 157 428
c108.667 119.333 246.667 179 414 179c68 0 130.667 -12.667 188 -38c64 -28 112 -68.667 144 -122h4v121h340v-1137h-340zM895.001 776c-54 54.667 -122.332 81.999 -204.999 81.999c-82 0 -149.667 -28.667 -203 -86c-52 -55.333 -78 -124.333 -78 -207
c0 -79.333 27 -146.666 81 -201.999c55.333 -56 122.666 -84 201.999 -84c82 0 150 27.667 204 83c53.333 55.333 80 124.333 80 207c0 83.333 -27 152.333 -81 207zM1369 1765c-8 -12.667 -17.666 -25.666 -28.999 -38.999
c-9.33301 -10.667 -20.666 -22.334 -33.999 -35.001l-35 -32c-12.667 -12 -22.667 -22.333 -30 -31c-20.667 -23.333 -32 -46 -34 -68h-174c0.666992 30.667 10 60.667 28 90c7.33301 11.333 16.666 23.333 27.999 36c8 9.33301 18.333 20.333 31 33l31 31
c11.333 12 20.666 22.333 27.999 31c17.333 22.667 26 44.334 26 65.001c0 41.333 -19.333 62 -58 62c-27.333 0 -46.333 -10 -57 -30c-7.33301 -13.333 -11.333 -35.333 -12 -66h-183c0 2.66699 -0.333008 5.66699 -1 9v9c0 73.333 25.667 133.666 77 180.999
c50 45.333 112 68 186 68c102 0 174 -40 216 -120c16 -30 24 -60.667 24 -92c0 -36.667 -9.33301 -70.667 -28 -102zM817.003 1311l-95 119l-94 -119h-332l320 340h221l307 -340h-327z" />
    <glyph glyph-name="uni1EAA" unicode="&#x1eaa;" 
d="M1114 0l-74 219h-526l-80 -219h-416l608 1516h305l603 -1516h-420zM782 1044h-6l-156 -518h318zM1247 2119c-80.667 -50.667 -158 -76 -232 -76c-22.667 0 -49.334 2.66699 -80.001 8l-169 37c-30.667 5.33301 -57 8 -79 8c-24 0 -49 -4 -75 -12l-72 -27l-123 181
c38 21.333 74 38 108 50c41.333 14 80.333 21 117 21c25.333 0 53.333 -2.66699 84 -8c12 -2 25.667 -4.66699 41 -8l82 -19c15.333 -3.33301 29.333 -6 42 -8c30.667 -5.33301 58.334 -8 83.001 -8c44.667 0 94.667 11.667 150 35zM872 1649l-94 118l-94 -118h-332l319 340
h221l308 -340h-328z" />
    <glyph glyph-name="uni1EAB" unicode="&#x1eab;" horiz-adv-x="1441" 
d="M976 0l0.000976562 123h-4c-28.667 -54.667 -76.334 -96.334 -143.001 -125.001c-57.333 -24.667 -120.333 -37 -189 -37c-171.333 0 -310.333 59 -417 177c-102.667 114.667 -154 258.334 -154 431.001c0 170 52.333 312.667 157 428
c108.667 119.333 246.667 179 414 179c68 0 130.667 -12.667 188 -38c64 -28 112 -68.667 144 -122h4v121h340v-1137h-340zM895.001 776c-54 54.667 -122.332 81.999 -204.999 81.999c-82 0 -149.667 -28.667 -203 -86c-52 -55.333 -78 -124.333 -78 -207
c0 -79.333 27 -146.666 81 -201.999c55.333 -56 122.666 -84 201.999 -84c82 0 150 27.667 204 83c53.333 55.333 80 124.333 80 207c0 83.333 -27 152.333 -81 207zM1202 1781c-80.667 -50.667 -157.669 -76 -231.002 -76c-23.333 0 -50.333 3 -81 9l-169 36
c-30 5.33301 -56 8 -78 8c-24.667 0 -49.667 -3.66699 -75 -11l-73 -27l-122 180c38 22 74 38.667 108 50c40.667 14 79.667 21 117 21c24.667 0 52.334 -2.66699 83.001 -8c12.667 -2 26.667 -4.66699 42 -8l82 -19c15.333 -3.33301 29 -6 41 -8
c30.667 -5.33301 58.667 -8 84 -8c44.667 0 94.334 11.667 149.001 35zM817 1311l-95 119l-94 -119h-332l320 340h221l307 -340h-327z" />
    <glyph glyph-name="uni1EAC" unicode="&#x1eac;" 
d="M1114 0l-74 219h-526l-80 -219h-416l608 1516h305l603 -1516h-420zM782 1044h-6l-156 -518h318zM613 -491v309h326v-309h-326zM872 1649l-94 118l-94 -118h-332l319 340h221l308 -340h-328z" />
    <glyph glyph-name="uni1EAD" unicode="&#x1ead;" horiz-adv-x="1441" 
d="M976 0l0.000976562 123h-4c-28.667 -54.667 -76.334 -96.334 -143.001 -125.001c-57.333 -24.667 -120.333 -37 -189 -37c-171.333 0 -310.333 59 -417 177c-102.667 114.667 -154 258.334 -154 431.001c0 170 52.333 312.667 157 428
c108.667 119.333 246.667 179 414 179c68 0 130.667 -12.667 188 -38c64 -28 112 -68.667 144 -122h4v121h340v-1137h-340zM895.001 776c-54 54.667 -122.332 81.999 -204.999 81.999c-82 0 -149.667 -28.667 -203 -86c-52 -55.333 -78 -124.333 -78 -207
c0 -79.333 27 -146.666 81 -201.999c55.333 -56 122.666 -84 201.999 -84c82 0 150 27.667 204 83c53.333 55.333 80 124.333 80 207c0 83.333 -27 152.333 -81 207zM588.002 -491.001v309h326v-309h-326zM817.002 1311l-95 119l-94 -119h-332l320 340h221l307 -340h-327z
" />
    <glyph glyph-name="uni1EAE" unicode="&#x1eae;" 
d="M1114 0l-74 219h-526l-80 -219h-416l608 1516h305l603 -1516h-420zM782 1044h-6l-156 -518h318zM734 1924l-96 201l491 264l109 -242zM1198 1927c-6.66699 -103.333 -54.666 -180.666 -143.999 -231.999c-73.333 -42 -166 -63 -278 -63
c-112.667 0 -205.334 21 -278.001 63c-88 51.333 -136 128.666 -144 231.999h232c24 -30 54 -50 90 -60c26 -8 62.667 -12 110 -12c39.333 0 73 4.66699 101 14c35.333 12 62 31.333 80 58h231z" />
    <glyph glyph-name="uni1EAF" unicode="&#x1eaf;" horiz-adv-x="1441" 
d="M976 0l0.000976562 123h-4c-28.667 -54.667 -76.334 -96.334 -143.001 -125.001c-57.333 -24.667 -120.333 -37 -189 -37c-171.333 0 -310.333 59 -417 177c-102.667 114.667 -154 258.334 -154 431.001c0 170 52.333 312.667 157 428
c108.667 119.333 246.667 179 414 179c68 0 130.667 -12.667 188 -38c64 -28 112 -68.667 144 -122h4v121h340v-1137h-340zM895.001 776c-54 54.667 -122.332 81.999 -204.999 81.999c-82 0 -149.667 -28.667 -203 -86c-52 -55.333 -78 -124.333 -78 -207
c0 -79.333 27 -146.666 81 -201.999c55.333 -56 122.666 -84 201.999 -84c82 0 150 27.667 204 83c53.333 55.333 80 124.333 80 207c0 83.333 -27 152.333 -81 207zM770.002 1588l-96 201l492 264l108 -242zM1198 1594
c-6.66699 -103.333 -54.666 -180.666 -143.999 -231.999c-73.333 -42 -166 -63 -278 -63c-112.667 0 -205.334 21 -278.001 63c-88 51.333 -136 128.666 -144 231.999h232c24 -30 54 -50 90 -60c26 -8 62.667 -12 110 -12c39.333 0 73 4.66699 101 14
c35.333 12 62 31.333 80 58h231z" />
    <glyph glyph-name="uni1EB0" unicode="&#x1eb0;" 
d="M1114 0l-74 219h-526l-80 -219h-416l608 1516h305l603 -1516h-420zM782 1044h-6l-156 -518h318zM877 1950l-506 221l104 240l496 -262zM1198 1927c-6.66699 -103.333 -54.666 -180.666 -143.999 -231.999c-73.333 -42 -166 -63 -278 -63
c-112.667 0 -205.334 21 -278.001 63c-88 51.333 -136 128.666 -144 231.999h232c24 -30 54 -50 90 -60c26 -8 62.667 -12 110 -12c39.333 0 73 4.66699 101 14c35.333 12 62 31.333 80 58h231z" />
    <glyph glyph-name="uni1EB1" unicode="&#x1eb1;" horiz-adv-x="1441" 
d="M976 0l0.000976562 123h-4c-28.667 -54.667 -76.334 -96.334 -143.001 -125.001c-57.333 -24.667 -120.333 -37 -189 -37c-171.333 0 -310.333 59 -417 177c-102.667 114.667 -154 258.334 -154 431.001c0 170 52.333 312.667 157 428
c108.667 119.333 246.667 179 414 179c68 0 130.667 -12.667 188 -38c64 -28 112 -68.667 144 -122h4v121h340v-1137h-340zM895.001 776c-54 54.667 -122.332 81.999 -204.999 81.999c-82 0 -149.667 -28.667 -203 -86c-52 -55.333 -78 -124.333 -78 -207
c0 -79.333 27 -146.666 81 -201.999c55.333 -56 122.666 -84 201.999 -84c82 0 150 27.667 204 83c53.333 55.333 80 124.333 80 207c0 83.333 -27 152.333 -81 207zM848.002 1581l-506 222l105 239l495 -262zM1198 1594
c-6.66699 -103.333 -54.666 -180.666 -143.999 -231.999c-73.333 -42 -166 -63 -278 -63c-112.667 0 -205.334 21 -278.001 63c-88 51.333 -136 128.666 -144 231.999h232c24 -30 54 -50 90 -60c26 -8 62.667 -12 110 -12c39.333 0 73 4.66699 101 14
c35.333 12 62 31.333 80 58h231z" />
    <glyph glyph-name="uni1EB2" unicode="&#x1eb2;" 
d="M1114 0l-74 219h-526l-80 -219h-416l608 1516h305l603 -1516h-420zM782 1044h-6l-156 -518h318zM1032 2146c-8 -12.667 -17.668 -25.665 -29.001 -38.998c-9.33301 -10.667 -20.666 -22.334 -33.999 -35.001l-34 -32c-13.333 -12 -23.666 -22.333 -30.999 -31
c-20.667 -23.333 -31.667 -46 -33 -68h-174c0 30.667 9 60.667 27 90c7.33301 11.333 16.666 23.333 27.999 35.999c8 9.33301 18.333 20.333 31 33l32 31c11.333 12 20.333 22.333 27 31c18 22.667 27 44.334 27 65c0 41.333 -19.333 62 -58 62c-28 0 -47 -10 -57 -30
c-8 -13.333 -12 -35.333 -12 -66h-183c-0.666992 2.66699 -1 5.66699 -1 9v9c0 73.333 25.333 133.666 76 181c50 45.333 112.333 68 187 68c101.333 0 173.333 -40 216 -120c16 -30 24 -60.667 24 -92c0 -36.667 -9.66699 -70.667 -29 -102zM1198 1927
c-6.66699 -103.333 -54.666 -180.666 -143.999 -231.999c-73.333 -42 -166 -63 -278 -63c-112.667 0 -205.334 21 -278.001 63c-88 51.333 -136 128.666 -144 231.999h232c24 -30 54 -50 90 -60c26 -8 62.667 -12 110 -12c39.333 0 73 4.66699 101 14
c35.333 12 62 31.333 80 58h231z" />
    <glyph glyph-name="uni1EB3" unicode="&#x1eb3;" horiz-adv-x="1441" 
d="M976 0l0.000976562 123h-4c-28.667 -54.667 -76.334 -96.334 -143.001 -125.001c-57.333 -24.667 -120.333 -37 -189 -37c-171.333 0 -310.333 59 -417 177c-102.667 114.667 -154 258.334 -154 431.001c0 170 52.333 312.667 157 428
c108.667 119.333 246.667 179 414 179c68 0 130.667 -12.667 188 -38c64 -28 112 -68.667 144 -122h4v121h340v-1137h-340zM895.001 776c-54 54.667 -122.332 81.999 -204.999 81.999c-82 0 -149.667 -28.667 -203 -86c-52 -55.333 -78 -124.333 -78 -207
c0 -79.333 27 -146.666 81 -201.999c55.333 -56 122.666 -84 201.999 -84c82 0 150 27.667 204 83c53.333 55.333 80 124.333 80 207c0 83.333 -27 152.333 -81 207zM1030 1812c-8 -12.667 -17.666 -25.666 -28.999 -38.999
c-9.33301 -10.667 -20.666 -22.334 -33.999 -35.001l-35 -32c-12.667 -12 -22.667 -22.333 -30 -31c-20.667 -23.333 -32 -46 -34 -68h-174c0.666992 30.667 10 60.667 28 90c7.33301 11.333 16.666 23.333 27.999 36c8 9.33301 18.333 20.333 31 33l31 31
c11.333 12 20.666 22.333 27.999 31c17.333 22.667 26 44.334 26 65.001c0 41.333 -19.333 62 -58 62c-27.333 0 -46.333 -10 -57 -30c-7.33301 -13.333 -11.333 -35.333 -12 -66h-183c0 2.66699 -0.333008 5.66699 -1 9v9c0 73.333 25.667 133.666 77 180.999
c50 45.333 112 68 186 68c102 0 174 -40 216 -120c16 -30 24 -60.667 24 -92c0 -36.667 -9.33301 -70.667 -28 -102zM1198 1594c-6.66699 -103.333 -54.666 -180.666 -143.999 -231.999c-73.333 -42 -166 -63 -278 -63c-112.667 0 -205.334 21 -278.001 63
c-88 51.333 -136 128.666 -144 231.999h232c24 -30 54 -50 90 -60c26 -8 62.667 -12 110 -12c39.333 0 73 4.66699 101 14c35.333 12 62 31.333 80 58h231z" />
    <glyph glyph-name="uni1EB4" unicode="&#x1eb4;" 
d="M1114 0l-74 219h-526l-80 -219h-416l608 1516h305l603 -1516h-420zM782 1044h-6l-156 -518h318zM1247 2119c-80.667 -50.667 -158 -76 -232 -76c-22.667 0 -49.334 2.66699 -80.001 8l-169 37c-30.667 5.33301 -57 8 -79 8c-24 0 -49 -4 -75 -12l-72 -27l-123 181
c38 21.333 74 38 108 50c41.333 14 80.333 21 117 21c25.333 0 53.333 -2.66699 84 -8c12 -2 25.667 -4.66699 41 -8l82 -19c15.333 -3.33301 29.333 -6 42 -8c30.667 -5.33301 58.334 -8 83.001 -8c44.667 0 94.667 11.667 150 35zM1198 1927
c-6.66699 -103.333 -54.666 -180.666 -143.999 -231.999c-73.333 -42 -166 -63 -278 -63c-112.667 0 -205.334 21 -278.001 63c-88 51.333 -136 128.666 -144 231.999h232c24 -30 54 -50 90 -60c26 -8 62.667 -12 110 -12c39.333 0 73 4.66699 101 14
c35.333 12 62 31.333 80 58h231z" />
    <glyph glyph-name="uni1EB5" unicode="&#x1eb5;" horiz-adv-x="1441" 
d="M976 0l0.000976562 123h-4c-28.667 -54.667 -76.334 -96.334 -143.001 -125.001c-57.333 -24.667 -120.333 -37 -189 -37c-171.333 0 -310.333 59 -417 177c-102.667 114.667 -154 258.334 -154 431.001c0 170 52.333 312.667 157 428
c108.667 119.333 246.667 179 414 179c68 0 130.667 -12.667 188 -38c64 -28 112 -68.667 144 -122h4v121h340v-1137h-340zM895.001 776c-54 54.667 -122.332 81.999 -204.999 81.999c-82 0 -149.667 -28.667 -203 -86c-52 -55.333 -78 -124.333 -78 -207
c0 -79.333 27 -146.666 81 -201.999c55.333 -56 122.666 -84 201.999 -84c82 0 150 27.667 204 83c53.333 55.333 80 124.333 80 207c0 83.333 -27 152.333 -81 207zM1183 1724c-80.667 -50.667 -157.669 -76 -231.002 -76c-23.333 0 -50.333 3 -81 9l-169 36
c-30 5.33301 -56 8 -78 8c-24.667 0 -49.667 -3.66699 -75 -11l-73 -27l-122 180c38 22 74 38.667 108 50c40.667 14 79.667 21 117 21c24.667 0 52.334 -2.66699 83.001 -8c12.667 -2 26.667 -4.66699 42 -8l82 -19c15.333 -3.33301 29 -6 41 -8
c30.667 -5.33301 58.667 -8 84 -8c44.667 0 94.334 11.667 149.001 35zM1198 1594c-6.66699 -103.333 -54.666 -180.666 -143.999 -231.999c-73.333 -42 -166 -63 -278 -63c-112.667 0 -205.334 21 -278.001 63c-88 51.333 -136 128.666 -144 231.999h232
c24 -30 54 -50 90 -60c26 -8 62.667 -12 110 -12c39.333 0 73 4.66699 101 14c35.333 12 62 31.333 80 58h231z" />
    <glyph glyph-name="uni1EB6" unicode="&#x1eb6;" 
d="M1114 0l-74 219h-526l-80 -219h-416l608 1516h305l603 -1516h-420zM782 1044h-6l-156 -518h318zM613 -491v309h326v-309h-326zM1198 1927c-6.66699 -103.333 -54.666 -180.666 -143.999 -231.999c-73.333 -42 -166 -63 -278 -63c-112.667 0 -205.334 21 -278.001 63
c-88 51.333 -136 128.666 -144 231.999h232c24 -30 54 -50 90 -60c26 -8 62.667 -12 110 -12c39.333 0 73 4.66699 101 14c35.333 12 62 31.333 80 58h231z" />
    <glyph glyph-name="uni1EB7" unicode="&#x1eb7;" horiz-adv-x="1441" 
d="M976 0l0.000976562 123h-4c-28.667 -54.667 -76.334 -96.334 -143.001 -125.001c-57.333 -24.667 -120.333 -37 -189 -37c-171.333 0 -310.333 59 -417 177c-102.667 114.667 -154 258.334 -154 431.001c0 170 52.333 312.667 157 428
c108.667 119.333 246.667 179 414 179c68 0 130.667 -12.667 188 -38c64 -28 112 -68.667 144 -122h4v121h340v-1137h-340zM895.001 776c-54 54.667 -122.332 81.999 -204.999 81.999c-82 0 -149.667 -28.667 -203 -86c-52 -55.333 -78 -124.333 -78 -207
c0 -79.333 27 -146.666 81 -201.999c55.333 -56 122.666 -84 201.999 -84c82 0 150 27.667 204 83c53.333 55.333 80 124.333 80 207c0 83.333 -27 152.333 -81 207zM588.002 -491.001v309h326v-309h-326zM1198 1594c-6.66699 -103.333 -54.666 -180.666 -143.999 -231.999
c-73.333 -42 -166 -63 -278 -63c-112.667 0 -205.334 21 -278.001 63c-88 51.333 -136 128.666 -144 231.999h232c24 -30 54 -50 90 -60c26 -8 62.667 -12 110 -12c39.333 0 73 4.66699 101 14c35.333 12 62 31.333 80 58h231z" />
    <glyph glyph-name="uni1EB8" unicode="&#x1eb8;" horiz-adv-x="1081" 
d="M137 0v1516h842v-340h-471v-236h456v-340h-456v-260h471v-340h-842zM395 -491v309h326v-309h-326z" />
    <glyph glyph-name="uni1EB9" unicode="&#x1eb9;" horiz-adv-x="1323" 
d="M1249 465l-851.999 -0.000976562c21.333 -143.333 110 -215 266 -215c81.333 0 150.333 35.333 207 106h348c-50.667 -118 -123.334 -212 -218.001 -282c-100.667 -74 -213 -111 -337 -111c-166 0 -307.667 59 -425 177c-118 117.333 -177 259 -177 425
c0 166.667 57.667 309.667 173 429c116.667 121.333 257.667 182 423 182c172 0 315.667 -60.667 431 -182c112.667 -119.333 169 -265.666 169 -438.999c0 -32.667 -2.66699 -62.667 -8 -90zM917.001 693.999c-28 130 -114 195 -258 195s-230 -65 -258 -195h516z
M496.001 -491.001v309h326v-309h-326z" />
    <glyph glyph-name="uni1EBA" unicode="&#x1eba;" horiz-adv-x="1081" 
d="M137 0v1516h842v-340h-471v-236h456v-340h-456v-260h471v-340h-842zM799 1821c-8 -12.667 -17.667 -25.666 -29 -38.999c-9.33301 -10.667 -20.666 -22.334 -33.999 -35.001l-35 -32c-12.667 -12 -22.667 -22.333 -30 -31c-20.667 -23.333 -32 -46 -34 -68h-174
c0.666992 30.667 10 60.667 28 90c7.33301 11.333 16.666 23.333 27.999 36c8 9.33301 18.333 20.333 31 33l31 31c12 12 21.333 22.333 28 31c17.333 22.667 26 44.334 26 65.001c0 41.333 -19.333 62 -58 62c-27.333 0 -46.333 -10 -57 -30
c-7.33301 -13.333 -11.333 -35.333 -12 -66h-183c0 2.66699 -0.333008 5.66699 -1 9v9c0 73.333 25.667 133.666 77 180.999c50 45.333 112 68 186 68c102 0 174 -40 216 -120c16 -30 24 -60.667 24 -92c0 -36.667 -9.33301 -70.667 -28 -102z" />
    <glyph glyph-name="uni1EBB" unicode="&#x1ebb;" horiz-adv-x="1323" 
d="M1249 465l-851.999 -0.000976562c21.333 -143.333 110 -215 266 -215c81.333 0 150.333 35.333 207 106h348c-50.667 -118 -123.334 -212 -218.001 -282c-100.667 -74 -213 -111 -337 -111c-166 0 -307.667 59 -425 177c-118 117.333 -177 259 -177 425
c0 166.667 57.667 309.667 173 429c116.667 121.333 257.667 182 423 182c172 0 315.667 -60.667 431 -182c112.667 -119.333 169 -265.666 169 -438.999c0 -32.667 -2.66699 -62.667 -8 -90zM917.001 693.999c-28 130 -114 195 -258 195s-230 -65 -258 -195h516z
M882.001 1487c-8 -12.667 -17.668 -25.666 -29.001 -38.999c-9.33301 -10.667 -20.666 -22.334 -33.999 -35.001l-34 -32c-13.333 -12 -23.666 -22.333 -30.999 -31c-20.667 -23.333 -31.667 -46 -33 -68h-174c0 30.667 9 60.667 27 90
c7.33301 11.333 16.666 23.333 27.999 36c8 9.33301 18.333 20.333 31 33l32 31c11.333 12 20.333 22.333 27 31c18 22.667 27 44.334 27 65.001c0 41.333 -19.333 62 -58 62c-28 0 -47 -10 -57 -30c-8 -13.333 -12 -35.333 -12 -66h-183c-0.666992 2.66699 -1 5.66699 -1 9
v9c0 73.333 25.333 133.666 76 180.999c50 45.333 112.333 68 187 68c101.333 0 173.333 -40 216 -120c16 -30 24 -60.667 24 -92c0 -36.667 -9.66699 -70.667 -29 -102z" />
    <glyph glyph-name="uni1EBC" unicode="&#x1ebc;" horiz-adv-x="1081" 
d="M137 0v1516h842v-340h-471v-236h456v-340h-456v-260h471v-340h-842zM968 1739c-80 -50.667 -157.001 -76 -231.001 -76c-22.667 0 -49.667 2.66699 -81 8l-169 37c-30 5.33301 -56 8 -78 8c-24 0 -49 -4 -75 -12l-72 -27l-123 181c38 21.333 74 38 108 50
c41.333 14 80.333 21 117 21c25.333 0 53.333 -2.66699 84 -8c12 -2 25.667 -4.66699 41 -8l82 -19c15.333 -3.33301 29 -6 41 -8c30.667 -5.33301 58.667 -8 84 -8c44.667 0 94.334 11.667 149.001 35z" />
    <glyph glyph-name="uni1EBD" unicode="&#x1ebd;" horiz-adv-x="1323" 
d="M1249 465l-851.999 -0.000976562c21.333 -143.333 110 -215 266 -215c81.333 0 150.333 35.333 207 106h348c-50.667 -118 -123.334 -212 -218.001 -282c-100.667 -74 -213 -111 -337 -111c-166 0 -307.667 59 -425 177c-118 117.333 -177 259 -177 425
c0 166.667 57.667 309.667 173 429c116.667 121.333 257.667 182 423 182c172 0 315.667 -60.667 431 -182c112.667 -119.333 169 -265.666 169 -438.999c0 -32.667 -2.66699 -62.667 -8 -90zM917.001 693.999c-28 130 -114 195 -258 195s-230 -65 -258 -195h516zM1074 1409
c-80.667 -50.667 -158.001 -76 -232.001 -76c-22.667 0 -49.334 3 -80.001 9l-169 36c-30.667 5.33301 -56.667 8 -78 8c-24.667 0 -50 -3.66699 -76 -11l-72 -27l-123 180c38 22 74 38.667 108 50c41.333 14 80.666 21 117.999 21c24.667 0 52.334 -2.66699 83.001 -8
c12 -2 25.667 -4.66699 41 -8l83 -19c14.667 -3.33301 28.334 -6 41.001 -8c30.667 -5.33301 58.334 -8 83.001 -8c45.333 0 95.333 11.667 150 35z" />
    <glyph glyph-name="uni1EBE" unicode="&#x1ebe;" horiz-adv-x="1081" 
d="M137 0v1516h842v-340h-471v-236h457v-340h-457v-260h471v-340h-842zM926 1821l-96 201l491 264l109 -242zM647 1649l-94 118l-94 -118h-332l319 340h222l307 -340h-328z" />
    <glyph glyph-name="uni1EBF" unicode="&#x1ebf;" horiz-adv-x="1323" 
d="M1249 465l-851.999 -0.000976562c21.333 -143.333 110 -215 266 -215c81.333 0 150.333 35.333 207 106h348c-50.667 -118 -123.334 -212 -218.001 -282c-100.667 -74 -213 -111 -337 -111c-166 0 -307.667 59 -425 177c-118 117.333 -177 259 -177 425
c0 166.667 57.667 309.667 173 429c116.667 121.333 257.667 182 423 182c172 0 315.667 -60.667 431 -182c112.667 -119.333 169 -265.666 169 -438.999c0 -32.667 -2.66699 -62.667 -8 -90zM917.001 693.999c-28 130 -114 195 -258 195s-230 -65 -258 -195h516zM1009 1476
l-96 201l492 264l108 -242zM757.001 1311l-94 119l-94 -119h-332l320 340h221l307 -340h-328z" />
    <glyph glyph-name="uni1EC0" unicode="&#x1ec0;" horiz-adv-x="1081" 
d="M137 0v1516h842v-340h-471v-236h457v-340h-457v-260h471v-340h-842zM902 1960l-506 221l104 240l496 -262zM647 1649l-94 118l-94 -118h-332l319 340h222l307 -340h-328z" />
    <glyph glyph-name="uni1EC1" unicode="&#x1ec1;" horiz-adv-x="1323" 
d="M1249 465l-851.999 -0.000976562c21.333 -143.333 110 -215 266 -215c81.333 0 150.333 35.333 207 106h348c-50.667 -118 -123.334 -212 -218.001 -282c-100.667 -74 -213 -111 -337 -111c-166 0 -307.667 59 -425 177c-118 117.333 -177 259 -177 425
c0 166.667 57.667 309.667 173 429c116.667 121.333 257.667 182 423 182c172 0 315.667 -60.667 431 -182c112.667 -119.333 169 -265.666 169 -438.999c0 -32.667 -2.66699 -62.667 -8 -90zM917.001 693.999c-28 130 -114 195 -258 195s-230 -65 -258 -195h516zM1003 1591
l-506 222l105 239l495 -262zM757.001 1311l-94 119l-94 -119h-332l320 340h221l307 -340h-328z" />
    <glyph glyph-name="uni1EC2" unicode="&#x1ec2;" horiz-adv-x="1081" 
d="M137 0v1516h842v-340h-471v-236h457v-340h-457v-260h471v-340h-842zM1115 2137c-7.33301 -12.667 -17 -25.667 -29 -39c-8.66699 -10.667 -20 -22.334 -34 -35l-34 -32c-12.667 -12 -23 -22.333 -31 -31c-20 -23.333 -31 -46 -33 -68h-174
c0.666992 30.667 10 60.667 28 90c7.33301 11.333 16.333 23.333 27 36c8 9.33301 18.667 20.333 32 33l31 31c11.333 12 20.333 22.333 27 31c18 22.667 27 44.334 27 65c0 41.333 -19.333 62 -58 62c-27.333 0 -46.333 -10 -57 -30
c-7.33301 -13.333 -11.333 -35.333 -12 -66h-183c-0.666992 2.66699 -1 5.66699 -1 9v9c0 73.333 25.667 133.666 77 181c49.333 45.333 111.333 68 186 68c101.333 0 173.333 -40 216 -120c16 -30 24 -60.667 24 -92c0 -36.667 -9.66699 -70.667 -29 -102zM647 1649
l-94 118l-94 -118h-332l319 340h222l307 -340h-328z" />
    <glyph glyph-name="uni1EC3" unicode="&#x1ec3;" horiz-adv-x="1323" 
d="M1249 465l-851.999 -0.000976562c21.333 -143.333 110 -215 266 -215c81.333 0 150.333 35.333 207 106h348c-50.667 -118 -123.334 -212 -218.001 -282c-100.667 -74 -213 -111 -337 -111c-166 0 -307.667 59 -425 177c-118 117.333 -177 259 -177 425
c0 166.667 57.667 309.667 173 429c116.667 121.333 257.667 182 423 182c172 0 315.667 -60.667 431 -182c112.667 -119.333 169 -265.666 169 -438.999c0 -32.667 -2.66699 -62.667 -8 -90zM917.001 693.999c-28 130 -114 195 -258 195s-230 -65 -258 -195h516zM1225 1803
c-8 -12.667 -17.668 -25.666 -29.001 -38.999c-9.33301 -10.667 -20.666 -22.334 -33.999 -35.001l-34 -32c-13.333 -12 -23.666 -22.333 -30.999 -31c-20.667 -23.333 -31.667 -46 -33 -68h-174c0 30.667 9 60.667 27 90c7.33301 11.333 16.666 23.333 27.999 36
c8 9.33301 18.333 20.333 31 33l32 31c11.333 12 20.333 22.333 27 31c18 22.667 27 44.334 27 65.001c0 41.333 -19.333 62 -58 62c-28 0 -47 -10 -57 -30c-8 -13.333 -12 -35.333 -12 -66h-183c-0.666992 2.66699 -1 5.66699 -1 9v9c0 73.333 25.333 133.666 76 180.999
c50 45.333 112.333 68 187 68c101.333 0 173.333 -40 216 -120c16 -30 24 -60.667 24 -92c0 -36.667 -9.66699 -70.667 -29 -102zM757 1311l-94 119l-94 -119h-332l320 340h221l307 -340h-328z" />
    <glyph glyph-name="uni1EC4" unicode="&#x1ec4;" horiz-adv-x="1081" 
d="M137 0v1516h842v-340h-471v-236h457v-340h-457v-260h471v-340h-842zM1062 2110c-80.667 -50.667 -158.002 -76 -232.002 -76c-22.667 0 -49.334 2.66699 -80.001 8l-169 37c-30.667 5.33301 -56.667 8 -78 8c-24.667 0 -50 -4 -76 -12l-72 -27l-123 181
c38 21.333 74 38 108 50c41.333 14 80.666 21 117.999 21c24.667 0 52.334 -2.66699 83.001 -8c12.667 -2 26.334 -4.66699 41.001 -8l83 -19c14.667 -3.33301 28.334 -6 41.001 -8c30.667 -5.33301 58.334 -8 83.001 -8c45.333 0 95.333 11.667 150 35zM646.998 1649
l-94 118l-94 -118h-332l319 340h222l307 -340h-328z" />
    <glyph glyph-name="uni1EC5" unicode="&#x1ec5;" horiz-adv-x="1323" 
d="M1249 465l-851.999 -0.000976562c21.333 -143.333 110 -215 266 -215c81.333 0 150.333 35.333 207 106h348c-50.667 -118 -123.334 -212 -218.001 -282c-100.667 -74 -213 -111 -337 -111c-166 0 -307.667 59 -425 177c-118 117.333 -177 259 -177 425
c0 166.667 57.667 309.667 173 429c116.667 121.333 257.667 182 423 182c172 0 315.667 -60.667 431 -182c112.667 -119.333 169 -265.666 169 -438.999c0 -32.667 -2.66699 -62.667 -8 -90zM917.001 693.999c-28 130 -114 195 -258 195s-230 -65 -258 -195h516zM1130 1752
c-80.667 -50.667 -158.001 -76 -232.001 -76c-22.667 0 -49.334 3 -80.001 9l-169 36c-30.667 5.33301 -56.667 8 -78 8c-24.667 0 -50 -3.66699 -76 -11l-72 -27l-123 180c38 22 74 38.667 108 50c41.333 14 80.666 21 117.999 21c24.667 0 52.334 -2.66699 83.001 -8
c12 -2 25.667 -4.66699 41 -8l83 -19c14.667 -3.33301 28.334 -6 41.001 -8c30.667 -5.33301 58.334 -8 83.001 -8c45.333 0 95.333 11.667 150 35zM757 1311l-94 119l-94 -119h-332l320 340h221l307 -340h-328z" />
    <glyph glyph-name="uni1EC6" unicode="&#x1ec6;" horiz-adv-x="1081" 
d="M137 0v1516h842v-340h-471v-236h457v-340h-457v-260h471v-340h-842zM396 -491v309h325v-309h-325zM647 1649l-94 118l-94 -118h-332l319 340h222l307 -340h-328z" />
    <glyph glyph-name="uni1EC7" unicode="&#x1ec7;" horiz-adv-x="1323" 
d="M1249 465l-851.999 -0.000976562c21.333 -143.333 110 -215 266 -215c81.333 0 150.333 35.333 207 106h348c-50.667 -118 -123.334 -212 -218.001 -282c-100.667 -74 -213 -111 -337 -111c-166 0 -307.667 59 -425 177c-118 117.333 -177 259 -177 425
c0 166.667 57.667 309.667 173 429c116.667 121.333 257.667 182 423 182c172 0 315.667 -60.667 431 -182c112.667 -119.333 169 -265.666 169 -438.999c0 -32.667 -2.66699 -62.667 -8 -90zM917.001 693.999c-28 130 -114 195 -258 195s-230 -65 -258 -195h516z
M496.001 -491.001v309h326v-309h-326zM757.001 1311l-94 119l-94 -119h-332l320 340h221l307 -340h-328z" />
    <glyph glyph-name="uni1EC8" unicode="&#x1ec8;" horiz-adv-x="661" 
d="M138 0v1516h387v-1516h-387zM576 1821c-8 -12.667 -18 -25.666 -30 -38.999c-8.66699 -10.667 -20 -22.334 -34 -35.001l-34 -32c-12.667 -12 -23 -22.333 -31 -31c-20 -23.333 -31 -46 -33 -68h-174c0.666992 30.667 10 60.667 28 90
c7.33301 11.333 16.333 23.333 27 36c8 9.33301 18.667 20.333 32 33l31 31c11.333 12 20.333 22.333 27 31c18 22.667 27 44.334 27 65.001c0 41.333 -19.333 62 -58 62c-27.333 0 -46.333 -10 -57 -30c-7.33301 -13.333 -11.333 -35.333 -12 -66h-183
c-0.666992 2.66699 -1 5.66699 -1 9v9c0 73.333 25.667 133.666 77 180.999c49.333 45.333 111.333 68 186 68c101.333 0 173.333 -40 216 -120c16 -30 24 -60.667 24 -92c0 -36.667 -9.33301 -70.667 -28 -102z" />
    <glyph glyph-name="uni1EC9" unicode="&#x1ec9;" horiz-adv-x="585" 
d="M122 0v1137h340v-1137h-340zM538 1487c-8 -12.667 -18 -25.666 -30 -38.999c-8.66699 -10.667 -20 -22.334 -34 -35.001l-34 -32c-12.667 -12 -23 -22.333 -31 -31c-20 -23.333 -31 -46 -33 -68h-174c0.666992 30.667 10 60.667 28 90
c7.33301 11.333 16.333 23.333 27 36c8 9.33301 18.667 20.333 32 33l31 31c11.333 12 20.333 22.333 27 31c18 22.667 27 44.334 27 65.001c0 41.333 -19.333 62 -58 62c-27.333 0 -46.333 -10 -57 -30c-7.33301 -13.333 -11.333 -35.333 -12 -66h-183
c-0.666992 2.66699 -1 5.66699 -1 9v9c0 73.333 25.667 133.666 77 180.999c49.333 45.333 111.333 68 186 68c101.333 0 173.333 -40 216 -120c16 -30 24 -60.667 24 -92c0 -36.667 -9.33301 -70.667 -28 -102z" />
    <glyph glyph-name="uni1ECA" unicode="&#x1eca;" horiz-adv-x="661" 
d="M137 0v1516h387v-1516h-387zM168 -491v309h325v-309h-325z" />
    <glyph glyph-name="uni1ECB" unicode="&#x1ecb;" horiz-adv-x="585" 
d="M122 1257v259h340v-259h-340zM122 0v1137h340v-1137h-340zM129 -491v309h326v-309h-326z" />
    <glyph glyph-name="uni1ECC" unicode="&#x1ecc;" horiz-adv-x="1742" 
d="M1436 196c-155.333 -150 -344.669 -224.999 -568.002 -224.999c-217.333 0 -403.666 73.667 -558.999 221c-158.667 149.333 -238 331.666 -238 546.999c0 114.667 19.667 222.667 59 324c20.667 54 53.667 110.667 99 170c157.333 207.333 371 311 641 311
c222.667 0 411.334 -75.333 566.001 -226c156 -151.333 234 -338 234 -560c0 -222.667 -78 -410 -234 -562zM1171 1068c-79.333 90.667 -179 136 -299 136c-121.333 0 -221.333 -44 -300 -132c-76 -84.667 -114 -188 -114 -310c0 -124.667 38.333 -230 115 -316
c79.333 -90 180.333 -135 303 -135c118 0 216.333 45.333 295 136c74.667 86 112 189 112 309c0 122 -37.333 226 -112 312zM707.997 -490.999v309h326v-309h-326z" />
    <glyph glyph-name="uni1ECD" unicode="&#x1ecd;" horiz-adv-x="1363" 
d="M1118 137c-116.667 -114.667 -262.334 -172 -437.001 -172s-320 57.333 -436 172c-117.333 114.667 -176 258.667 -176 432c0 174 58.667 318.333 176 433c116 114.667 261.333 172 436 172s320.334 -57.333 437.001 -172c117.333 -114.667 176 -259 176 -433
c0 -173.333 -58.667 -317.333 -176 -432zM877 770c-52.667 57.333 -118 86 -196 86c-77.333 0 -142.333 -28.667 -195 -86c-51.333 -55.333 -77 -122.333 -77 -201c0 -78 25.667 -145 77 -201c52.667 -56.667 117.667 -85 195 -85c78 0 143.333 28.333 196 85
c51.333 56 77 123 77 201c0 78.667 -25.667 145.667 -77 201zM519 -491v309h325v-309h-325z" />
    <glyph glyph-name="uni1ECE" unicode="&#x1ece;" horiz-adv-x="1742" 
d="M1436 196c-155.333 -150 -344.669 -224.999 -568.002 -224.999c-217.333 0 -403.666 73.667 -558.999 221c-158.667 149.333 -238 331.666 -238 546.999c0 114.667 19.667 222.667 59 324c20.667 54 53.667 110.667 99 170c157.333 207.333 371 311 641 311
c222.667 0 411.334 -75.333 566.001 -226c156 -151.333 234 -338 234 -560c0 -222.667 -78 -410 -234 -562zM1171 1068c-79.333 90.667 -179 136 -299 136c-121.333 0 -221.333 -44 -300 -132c-76 -84.667 -114 -188 -114 -310c0 -124.667 38.333 -230 115 -316
c79.333 -90 180.333 -135 303 -135c118 0 216.333 45.333 295 136c74.667 86 112 189 112 309c0 122 -37.333 226 -112 312zM1094 1821c-8 -12.667 -17.998 -25.666 -29.998 -38.999c-8.66699 -10.667 -19.667 -22.334 -33 -35.001l-35 -32
c-12.667 -12 -22.667 -22.333 -30 -31c-20.667 -23.333 -32 -46 -34 -68h-174c0.666992 30.667 10 60.667 28 90c7.33301 11.333 16.666 23.333 27.999 36c8 9.33301 18.333 20.333 31 33l31 31c11.333 12 20.666 22.333 27.999 31c17.333 22.667 26 44.334 26 65.001
c0 41.333 -19.333 62 -58 62c-27.333 0 -46.333 -10 -57 -30c-7.33301 -13.333 -11.333 -35.333 -12 -66h-183c0 2.66699 -0.333008 5.66699 -1 9v9c0 73.333 25.667 133.666 77 180.999c50 45.333 112 68 186 68c102 0 174 -40 216 -120c16 -30 24 -60.667 24 -92
c0 -36.667 -9.33301 -70.667 -28 -102z" />
    <glyph glyph-name="uni1ECF" unicode="&#x1ecf;" horiz-adv-x="1363" 
d="M1118 137c-116.667 -114.667 -262.334 -172 -437.001 -172s-320 57.333 -436 172c-117.333 114.667 -176 258.667 -176 432c0 174 58.667 318.333 176 433c116 114.667 261.333 172 436 172s320.334 -57.333 437.001 -172c117.333 -114.667 176 -259 176 -433
c0 -173.333 -58.667 -317.333 -176 -432zM877 770c-52.667 57.333 -118 86 -196 86c-77.333 0 -142.333 -28.667 -195 -86c-51.333 -55.333 -77 -122.333 -77 -201c0 -78 25.667 -145 77 -201c52.667 -56.667 117.667 -85 195 -85c78 0 143.333 28.333 196 85
c51.333 56 77 123 77 201c0 78.667 -25.667 145.667 -77 201zM904 1487c-7.33301 -12.667 -17 -25.666 -29 -38.999c-8.66699 -10.667 -20 -22.334 -34 -35.001l-34 -32c-12.667 -12 -23 -22.333 -31 -31c-20 -23.333 -31 -46 -33 -68h-174c0.666992 30.667 10 60.667 28 90
c7.33301 11.333 16.333 23.333 27 36c8 9.33301 18.667 20.333 32 33l31 31c11.333 12 20.333 22.333 27 31c18 22.667 27 44.334 27 65.001c0 41.333 -19.333 62 -58 62c-27.333 0 -46.333 -10 -57 -30c-7.33301 -13.333 -11.333 -35.333 -12 -66h-183
c-0.666992 2.66699 -1 5.66699 -1 9v9c0 73.333 25.667 133.666 77 180.999c49.333 45.333 111.333 68 186 68c101.333 0 173.333 -40 216 -120c16 -30 24 -60.667 24 -92c0 -36.667 -9.66699 -70.667 -29 -102z" />
    <glyph glyph-name="uni1ED0" unicode="&#x1ed0;" horiz-adv-x="1742" 
d="M1436 196c-155.333 -150 -344.669 -224.999 -568.002 -224.999c-217.333 0 -403.666 73.667 -558.999 221c-158.667 149.333 -238 331.666 -238 546.999c0 114.667 19.667 222.667 59 324c20.667 54 53.667 110.667 99 170c157.333 207.333 371 311 641 311
c222.667 0 411.334 -75.333 566.001 -226c156 -151.333 234 -338 234 -560c0 -222.667 -78 -410 -234 -562zM1171 1068c-79.333 90.667 -179 136 -299 136c-121.333 0 -221.333 -44 -300 -132c-76 -84.667 -114 -188 -114 -310c0 -124.667 38.333 -230 115 -316
c79.333 -90 180.333 -135 303 -135c118 0 216.333 45.333 295 136c74.667 86 112 189 112 309c0 122 -37.333 226 -112 312zM1227 1821l-96 201l491 264l109 -242zM965.997 1649l-94 118l-94 -118h-332l319 340h221l308 -340h-328z" />
    <glyph glyph-name="uni1ED1" unicode="&#x1ed1;" horiz-adv-x="1363" 
d="M1118 137c-116.667 -114.667 -262.334 -172 -437.001 -172s-320 57.333 -436 172c-117.333 114.667 -176 258.667 -176 432c0 174 58.667 318.333 176 433c116 114.667 261.333 172 436 172s320.334 -57.333 437.001 -172c117.333 -114.667 176 -259 176 -433
c0 -173.333 -58.667 -317.333 -176 -432zM877 770c-52.667 57.333 -118 86 -196 86c-77.333 0 -142.333 -28.667 -195 -86c-51.333 -55.333 -77 -122.333 -77 -201c0 -78 25.667 -145 77 -201c52.667 -56.667 117.667 -85 195 -85c78 0 143.333 28.333 196 85
c51.333 56 77 123 77 201c0 78.667 -25.667 145.667 -77 201zM1038 1476l-97 201l492 264l108 -242zM778 1311l-95 119l-94 -119h-332l320 340h221l307 -340h-327z" />
    <glyph glyph-name="uni1ED2" unicode="&#x1ed2;" horiz-adv-x="1742" 
d="M1436 196c-155.333 -150 -344.669 -224.999 -568.002 -224.999c-217.333 0 -403.666 73.667 -558.999 221c-158.667 149.333 -238 331.666 -238 546.999c0 114.667 19.667 222.667 59 324c20.667 54 53.667 110.667 99 170c157.333 207.333 371 311 641 311
c222.667 0 411.334 -75.333 566.001 -226c156 -151.333 234 -338 234 -560c0 -222.667 -78 -410 -234 -562zM1171 1068c-79.333 90.667 -179 136 -299 136c-121.333 0 -221.333 -44 -300 -132c-76 -84.667 -114 -188 -114 -310c0 -124.667 38.333 -230 115 -316
c79.333 -90 180.333 -135 303 -135c118 0 216.333 45.333 295 136c74.667 86 112 189 112 309c0 122 -37.333 226 -112 312zM1222 1960l-506 221l104 240l496 -262zM965.997 1649l-94 118l-94 -118h-332l319 340h221l308 -340h-328z" />
    <glyph glyph-name="uni1ED3" unicode="&#x1ed3;" horiz-adv-x="1363" 
d="M1118 137c-116.667 -114.667 -262.334 -172 -437.001 -172s-320 57.333 -436 172c-117.333 114.667 -176 258.667 -176 432c0 174 58.667 318.333 176 433c116 114.667 261.333 172 436 172s320.334 -57.333 437.001 -172c117.333 -114.667 176 -259 176 -433
c0 -173.333 -58.667 -317.333 -176 -432zM877 770c-52.667 57.333 -118 86 -196 86c-77.333 0 -142.333 -28.667 -195 -86c-51.333 -55.333 -77 -122.333 -77 -201c0 -78 25.667 -145 77 -201c52.667 -56.667 117.667 -85 195 -85c78 0 143.333 28.333 196 85
c51.333 56 77 123 77 201c0 78.667 -25.667 145.667 -77 201zM1004 1627l-506 222l105 239l495 -262zM778 1311l-95 119l-94 -119h-332l320 340h221l307 -340h-327z" />
    <glyph glyph-name="uni1ED4" unicode="&#x1ed4;" horiz-adv-x="1742" 
d="M1436 196c-155.333 -150 -344.669 -224.999 -568.002 -224.999c-217.333 0 -403.666 73.667 -558.999 221c-158.667 149.333 -238 331.666 -238 546.999c0 114.667 19.667 222.667 59 324c20.667 54 53.667 110.667 99 170c157.333 207.333 371 311 641 311
c222.667 0 411.334 -75.333 566.001 -226c156 -151.333 234 -338 234 -560c0 -222.667 -78 -410 -234 -562zM1171 1068c-79.333 90.667 -179 136 -299 136c-121.333 0 -221.333 -44 -300 -132c-76 -84.667 -114 -188 -114 -310c0 -124.667 38.333 -230 115 -316
c79.333 -90 180.333 -135 303 -135c118 0 216.333 45.333 295 136c74.667 86 112 189 112 309c0 122 -37.333 226 -112 312zM1445 2145c-8 -12.667 -17.998 -25.6641 -29.998 -38.9971c-8.66699 -10.667 -19.667 -22.334 -33 -35.001l-35 -32
c-12.667 -12 -22.667 -22.333 -30 -31c-20.667 -23.333 -32 -46 -34 -68h-174c0.666992 30.667 10 60.667 28 90c7.33301 11.333 16.666 23.333 27.999 35.999c8 9.33301 18.333 20.333 31 33l31 31c11.333 12 20.666 22.333 27.999 31c17.333 22.667 26 44.334 26 65
c0 41.333 -19.333 62 -58 62c-27.333 0 -46.333 -10 -57 -30c-7.33301 -13.333 -11.333 -35.333 -12 -66h-183c0 2.66699 -0.333008 5.66699 -1 9v9c0 73.333 25.667 133.666 77 180.999c50 45.333 112 68 186 68c102 0 174 -40 216 -120c16 -30 24 -60.667 24 -92
c0 -36.667 -9.33301 -70.667 -28 -102zM965.999 1649l-94 118l-94 -118h-332l319 340h221l308 -340h-328z" />
    <glyph glyph-name="uni1ED5" unicode="&#x1ed5;" horiz-adv-x="1363" 
d="M1118 137c-116.667 -114.667 -262.334 -172 -437.001 -172s-320 57.333 -436 172c-117.333 114.667 -176 258.667 -176 432c0 174 58.667 318.333 176 433c116 114.667 261.333 172 436 172s320.334 -57.333 437.001 -172c117.333 -114.667 176 -259 176 -433
c0 -173.333 -58.667 -317.333 -176 -432zM877 770c-52.667 57.333 -118 86 -196 86c-77.333 0 -142.333 -28.667 -195 -86c-51.333 -55.333 -77 -122.333 -77 -201c0 -78 25.667 -145 77 -201c52.667 -56.667 117.667 -85 195 -85c78 0 143.333 28.333 196 85
c51.333 56 77 123 77 201c0 78.667 -25.667 145.667 -77 201zM1247 1784c-7.33301 -12.667 -17 -25.666 -29 -38.999c-8.66699 -10.667 -20 -22.334 -34 -35.001l-34 -32c-12.667 -12 -23 -22.333 -31 -31c-20 -23.333 -31 -46 -33 -68h-174
c0.666992 30.667 10 60.667 28 90c7.33301 11.333 16.333 23.333 27 36c8 9.33301 18.667 20.333 32 33l31 31c11.333 12 20.333 22.333 27 31c18 22.667 27 44.334 27 65.001c0 41.333 -19.333 62 -58 62c-27.333 0 -46.333 -10 -57 -30
c-7.33301 -13.333 -11.333 -35.333 -12 -66h-183c-0.666992 2.66699 -1 5.66699 -1 9v9c0 73.333 25.667 133.666 77 180.999c49.333 45.333 111.333 68 186 68c101.333 0 173.333 -40 216 -120c16 -30 24 -60.667 24 -92c0 -36.667 -9.66699 -70.667 -29 -102zM778 1311
l-95 119l-94 -119h-332l320 340h221l307 -340h-327z" />
    <glyph glyph-name="uni1ED6" unicode="&#x1ed6;" horiz-adv-x="1742" 
d="M1436 196c-155.333 -150 -344.669 -224.999 -568.002 -224.999c-217.333 0 -403.666 73.667 -558.999 221c-158.667 149.333 -238 331.666 -238 546.999c0 114.667 19.667 222.667 59 324c20.667 54 53.667 110.667 99 170c157.333 207.333 371 311 641 311
c222.667 0 411.334 -75.333 566.001 -226c156 -151.333 234 -338 234 -560c0 -222.667 -78 -410 -234 -562zM1171 1068c-79.333 90.667 -179 136 -299 136c-121.333 0 -221.333 -44 -300 -132c-76 -84.667 -114 -188 -114 -310c0 -124.667 38.333 -230 115 -316
c79.333 -90 180.333 -135 303 -135c118 0 216.333 45.333 295 136c74.667 86 112 189 112 309c0 122 -37.333 226 -112 312zM1387 2091c-80 -50.667 -157.001 -76 -231.001 -76c-22.667 0 -49.667 2.66699 -81 8l-168 37c-30.667 5.33301 -57 8 -79 8c-24 0 -49 -4 -75 -12
l-72 -27l-123 181c38 21.333 74 38 108 50c41.333 14 80.333 21 117 21c25.333 0 53.333 -2.66699 84 -8c12 -2 25.667 -4.66699 41 -8l82 -19c15.333 -3.33301 29.333 -6 42 -8c30.667 -5.33301 58.334 -8 83.001 -8c44.667 0 94.667 11.667 150 35zM965.996 1649l-94 118
l-94 -118h-332l319 340h221l308 -340h-328z" />
    <glyph glyph-name="uni1ED7" unicode="&#x1ed7;" horiz-adv-x="1363" 
d="M1118 137c-116.667 -114.667 -262.334 -172 -437.001 -172s-320 57.333 -436 172c-117.333 114.667 -176 258.667 -176 432c0 174 58.667 318.333 176 433c116 114.667 261.333 172 436 172s320.334 -57.333 437.001 -172c117.333 -114.667 176 -259 176 -433
c0 -173.333 -58.667 -317.333 -176 -432zM877 770c-52.667 57.333 -118 86 -196 86c-77.333 0 -142.333 -28.667 -195 -86c-51.333 -55.333 -77 -122.333 -77 -201c0 -78 25.667 -145 77 -201c52.667 -56.667 117.667 -85 195 -85c78 0 143.333 28.333 196 85
c51.333 56 77 123 77 201c0 78.667 -25.667 145.667 -77 201zM1180 1753c-80 -50.667 -157.002 -76 -231.002 -76c-23.333 0 -50.333 3 -81 9l-169 36c-30 5.33301 -56 8 -78 8c-24.667 0 -49.667 -3.66699 -75 -11l-72 -27l-123 180c38 22 74 38.667 108 50
c40.667 14 79.667 21 117 21c24.667 0 52.334 -2.66699 83.001 -8c12.667 -2 26.667 -4.66699 42 -8l82 -19c15.333 -3.33301 29 -6 41 -8c30.667 -5.33301 58.667 -8 84 -8c44.667 0 94.334 11.667 149.001 35zM777.998 1311l-95 119l-94 -119h-332l320 340h221l307 -340
h-327z" />
    <glyph glyph-name="uni1ED8" unicode="&#x1ed8;" horiz-adv-x="1742" 
d="M1436 196c-155.333 -150 -344.669 -224.999 -568.002 -224.999c-217.333 0 -403.666 73.667 -558.999 221c-158.667 149.333 -238 331.666 -238 546.999c0 114.667 19.667 222.667 59 324c20.667 54 53.667 110.667 99 170c157.333 207.333 371 311 641 311
c222.667 0 411.334 -75.333 566.001 -226c156 -151.333 234 -338 234 -560c0 -222.667 -78 -410 -234 -562zM1171 1068c-79.333 90.667 -179 136 -299 136c-121.333 0 -221.333 -44 -300 -132c-76 -84.667 -114 -188 -114 -310c0 -124.667 38.333 -230 115 -316
c79.333 -90 180.333 -135 303 -135c118 0 216.333 45.333 295 136c74.667 86 112 189 112 309c0 122 -37.333 226 -112 312zM707.997 -490.999v309h326v-309h-326zM965.997 1649l-94 118l-94 -118h-332l319 340h221l308 -340h-328z" />
    <glyph glyph-name="uni1ED9" unicode="&#x1ed9;" horiz-adv-x="1363" 
d="M1118 137c-116.667 -114.667 -262.334 -172 -437.001 -172s-320 57.333 -436 172c-117.333 114.667 -176 258.667 -176 432c0 174 58.667 318.333 176 433c116 114.667 261.333 172 436 172s320.334 -57.333 437.001 -172c117.333 -114.667 176 -259 176 -433
c0 -173.333 -58.667 -317.333 -176 -432zM877 770c-52.667 57.333 -118 86 -196 86c-77.333 0 -142.333 -28.667 -195 -86c-51.333 -55.333 -77 -122.333 -77 -201c0 -78 25.667 -145 77 -201c52.667 -56.667 117.667 -85 195 -85c78 0 143.333 28.333 196 85
c51.333 56 77 123 77 201c0 78.667 -25.667 145.667 -77 201zM519 -491v309h325v-309h-325zM778 1311l-95 119l-94 -119h-332l320 340h221l307 -340h-327z" />
    <glyph glyph-name="uni1EDA" unicode="&#x1eda;" horiz-adv-x="1742" 
d="M1170 1068c-78.667 90.667 -178.331 136 -298.998 136s-220.334 -44 -299.001 -132c-76 -84.667 -114 -188 -114 -310c0 -124.667 38 -230 114 -316c79.333 -90 180.666 -135 303.999 -135c118 0 216.333 45.333 295 136c74.667 86 112 189 112 309
c0 122 -37.667 226 -113 312zM708.003 1589l-97 201l492 264l108 -242zM1478 1274c128 -143.333 191.999 -315.332 191.999 -515.999c0 -222.667 -78.333 -410 -235 -562c-154.667 -150 -344 -225 -568 -225c-216.667 0 -402.667 73.667 -558 221
c-158.667 149.333 -238 331.666 -238 546.999c0 114.667 19.667 222.667 59 324c20.667 54 53.334 110.667 98.001 170c158 207.333 371.667 311 641 311c188 0 352 -53.667 492 -161l21 8c69.333 34 104 83.667 104 149h-80v228h229v-235
c-9.33301 -96.667 -41 -168.667 -95 -216c-20 -16.667 -40.667 -31 -62 -43z" />
    <glyph glyph-name="uni1EDB" unicode="&#x1edb;" horiz-adv-x="1363" 
d="M876 770c-52.667 57.333 -117.667 86 -195 86s-142.333 -28.667 -195 -86c-51.333 -55.333 -77 -122.333 -77 -201c0 -78 25.667 -145 77 -201c52.667 -56.667 117.667 -85 195 -85s142.333 28.333 195 85c51.333 56 77 123 77 201c0 78.667 -25.667 145.667 -77 201z
M519 1272l-96 201l491 264l109 -242zM1180 931c75.333 -101.333 113.001 -222 113.001 -362c0 -173.333 -58.333 -317.333 -175 -432s-262.334 -172 -437.001 -172s-320.334 57.333 -437.001 172s-175 258.667 -175 432c0 174 58.333 318.333 175 433
s262.334 172 437.001 172c154 0 285.333 -44.333 394 -133c50 32.667 75 76.667 75 132h-80v228h229v-235c-9.33301 -96.667 -41 -168.667 -95 -216c-8 -6.66699 -16 -13 -24 -19z" />
    <glyph glyph-name="uni1EDC" unicode="&#x1edc;" horiz-adv-x="1742" 
d="M1170 1068c-78.667 90.667 -178.331 136 -298.998 136s-220.334 -44 -299.001 -132c-76 -84.667 -114 -188 -114 -310c0 -124.667 38 -230 114 -316c79.333 -90 180.666 -135 303.999 -135c118 0 216.333 45.333 295 136c74.667 86 112 189 112 309
c0 122 -37.667 226 -113 312zM1035 1589l-506 221l105 240l495 -262zM1478 1274c128 -143.333 191.999 -315.332 191.999 -515.999c0 -222.667 -78.333 -410 -235 -562c-154.667 -150 -344 -225 -568 -225c-216.667 0 -402.667 73.667 -558 221
c-158.667 149.333 -238 331.666 -238 546.999c0 114.667 19.667 222.667 59 324c20.667 54 53.334 110.667 98.001 170c158 207.333 371.667 311 641 311c188 0 352 -53.667 492 -161l21 8c69.333 34 104 83.667 104 149h-80v228h229v-235
c-9.33301 -96.667 -41 -168.667 -95 -216c-20 -16.667 -40.667 -31 -62 -43z" />
    <glyph glyph-name="uni1EDD" unicode="&#x1edd;" horiz-adv-x="1363" 
d="M876 770c-52.667 57.333 -117.667 86 -195 86s-142.333 -28.667 -195 -86c-51.333 -55.333 -77 -122.333 -77 -201c0 -78 25.667 -145 77 -201c52.667 -56.667 117.667 -85 195 -85s142.333 28.333 195 85c51.333 56 77 123 77 201c0 78.667 -25.667 145.667 -77 201z
M847 1257l-506 222l104 239l496 -262zM1180 931c75.333 -101.333 113.001 -222 113.001 -362c0 -173.333 -58.333 -317.333 -175 -432s-262.334 -172 -437.001 -172s-320.334 57.333 -437.001 172s-175 258.667 -175 432c0 174 58.333 318.333 175 433
s262.334 172 437.001 172c154 0 285.333 -44.333 394 -133c50 32.667 75 76.667 75 132h-80v228h229v-235c-9.33301 -96.667 -41 -168.667 -95 -216c-8 -6.66699 -16 -13 -24 -19z" />
    <glyph glyph-name="uni1EDE" unicode="&#x1ede;" horiz-adv-x="1742" 
d="M1170 1068c-78.667 90.667 -178.331 136 -298.998 136s-220.334 -44 -299.001 -132c-76 -84.667 -114 -188 -114 -310c0 -124.667 38 -230 114 -316c79.333 -90 180.666 -135 303.999 -135c118 0 216.333 45.333 295 136c74.667 86 112 189 112 309
c0 122 -37.667 226 -113 312zM1094 1821c-8 -12.667 -18 -25.666 -30 -38.999c-8.66699 -10.667 -20 -22.334 -34 -35.001l-34 -32c-12.667 -12 -23 -22.333 -31 -31c-20 -23.333 -31 -46 -33 -68h-174c0.666992 30.667 10 60.667 28 90c7.33301 11.333 16.333 23.333 27 36
c8 9.33301 18.667 20.333 32 33l31 31c11.333 12 20.333 22.333 27 31c18 22.667 27 44.334 27 65.001c0 41.333 -19.333 62 -58 62c-27.333 0 -46.333 -10 -57 -30c-7.33301 -13.333 -11.333 -35.333 -12 -66h-183c-0.666992 2.66699 -1 5.66699 -1 9v9
c0 73.333 25.667 133.666 77 180.999c49.333 45.333 111.333 68 186 68c101.333 0 173.333 -40 216 -120c16 -30 24 -60.667 24 -92c0 -36.667 -9.33301 -70.667 -28 -102zM1478 1274c128 -143.333 191.999 -315.332 191.999 -515.999c0 -222.667 -78.333 -410 -235 -562
c-154.667 -150 -344 -225 -568 -225c-216.667 0 -402.667 73.667 -558 221c-158.667 149.333 -238 331.666 -238 546.999c0 114.667 19.667 222.667 59 324c20.667 54 53.334 110.667 98.001 170c158 207.333 371.667 311 641 311c188 0 352 -53.667 492 -161l21 8
c69.333 34 104 83.667 104 149h-80v228h229v-235c-9.33301 -96.667 -41 -168.667 -95 -216c-20 -16.667 -40.667 -31 -62 -43z" />
    <glyph glyph-name="uni1EDF" unicode="&#x1edf;" horiz-adv-x="1363" 
d="M876 770c-52.667 57.333 -117.667 86 -195 86s-142.333 -28.667 -195 -86c-51.333 -55.333 -77 -122.333 -77 -201c0 -78 25.667 -145 77 -201c52.667 -56.667 117.667 -85 195 -85s142.333 28.333 195 85c51.333 56 77 123 77 201c0 78.667 -25.667 145.667 -77 201z
M904 1487c-8 -12.667 -17.668 -25.666 -29.001 -38.999c-9.33301 -10.667 -20.666 -22.334 -33.999 -35.001l-34 -32c-13.333 -12 -23.666 -22.333 -30.999 -31c-20.667 -23.333 -32 -46 -34 -68h-174c0.666992 30.667 10 60.667 28 90
c7.33301 11.333 16.666 23.333 27.999 36c8 9.33301 18.333 20.333 31 33l32 31c11.333 12 20.333 22.333 27 31c17.333 22.667 26 44.334 26 65.001c0 41.333 -19.333 62 -58 62c-27.333 0 -46.333 -10 -57 -30c-7.33301 -13.333 -11.333 -35.333 -12 -66h-183v9l-1 9
c0 73.333 25.667 133.666 77 180.999c50 45.333 112 68 186 68c102 0 174 -40 216 -120c16 -30 24 -60.667 24 -92c0 -36.667 -9.33301 -70.667 -28 -102zM1180 931.001c75.333 -101.333 113.001 -222 113.001 -362c0 -173.333 -58.333 -317.333 -175 -432
s-262.334 -172 -437.001 -172s-320.334 57.333 -437.001 172s-175 258.667 -175 432c0 174 58.333 318.333 175 433s262.334 172 437.001 172c154 0 285.333 -44.333 394 -133c50 32.667 75 76.667 75 132h-80v228h229v-235c-9.33301 -96.667 -41 -168.667 -95 -216
c-8 -6.66699 -16 -13 -24 -19z" />
    <glyph glyph-name="uni1EE0" unicode="&#x1ee0;" horiz-adv-x="1742" 
d="M1436 196c-155.333 -150 -344.669 -224.999 -568.002 -224.999c-217.333 0 -403.666 73.667 -558.999 221c-158.667 149.333 -238 331.666 -238 546.999c0 114.667 19.667 222.667 59 324c20.667 54 53.667 110.667 99 170c157.333 207.333 371 311 641 311
c222.667 0 411.334 -75.333 566.001 -226c156 -151.333 234 -338 234 -560c0 -222.667 -78 -410 -234 -562zM1171 1068c-79.333 90.667 -179 136 -299 136c-121.333 0 -221.333 -44 -300 -132c-76 -84.667 -114 -188 -114 -310c0 -124.667 38.333 -230 115 -316
c79.333 -90 180.333 -135 303 -135c118 0 216.333 45.333 295 136c74.667 86 112 189 112 309c0 122 -37.333 226 -112 312zM1285 1739c-80 -50.667 -157.001 -76 -231.001 -76c-22.667 0 -49.667 2.66699 -81 8l-168 37c-30.667 5.33301 -57 8 -79 8c-24 0 -49 -4 -75 -12
l-72 -27l-123 181c38 21.333 74 38 108 50c41.333 14 80.333 21 117 21c25.333 0 53.333 -2.66699 84 -8c12 -2 25.667 -4.66699 41 -8l82 -19c15.333 -3.33301 29.333 -6 42 -8c30.667 -5.33301 58.334 -8 83.001 -8c44.667 0 94.667 11.667 150 35zM1406 1768h228.999
v-235c-9.33301 -96.667 -41.166 -168.667 -95.499 -216s-115.833 -75 -184.5 -83l-99 -8l7 144l39 -1c16 0.666992 42.667 8 80 22c69.333 34 104 83.667 104 149h-80v228z" />
    <glyph glyph-name="uni1EE1" unicode="&#x1ee1;" horiz-adv-x="1363" 
d="M876 770c-52.667 57.333 -117.667 86 -195 86s-142.333 -28.667 -195 -86c-51.333 -55.333 -77 -122.333 -77 -201c0 -78 25.667 -145 77 -201c52.667 -56.667 117.667 -85 195 -85s142.333 28.333 195 85c51.333 56 77 123 77 201c0 78.667 -25.667 145.667 -77 201z
M1181 1511c-80.667 -50.667 -158.001 -76 -232.001 -76c-22.667 0 -49.334 3 -80.001 9l-169 36c-30.667 5.33301 -56.667 8 -78 8c-24.667 0 -50 -3.66699 -76 -11l-72 -27l-123 180c38 22 74 38.667 108 50c41.333 14 80.666 21 117.999 21
c24.667 0 52.334 -2.66699 83.001 -8c12 -2 25.667 -4.66699 41 -8l83 -19c14.667 -3.33301 28.334 -6 41.001 -8c30.667 -5.33301 58.334 -8 83.001 -8c45.333 0 95.333 11.667 150 35zM1180 931c75.333 -101.333 113.001 -222 113.001 -362
c0 -173.333 -58.333 -317.333 -175 -432s-262.334 -172 -437.001 -172s-320.334 57.333 -437.001 172s-175 258.667 -175 432c0 174 58.333 318.333 175 433s262.334 172 437.001 172c154 0 285.333 -44.333 394 -133c50 32.667 75 76.667 75 132h-80v228h229v-235
c-9.33301 -96.667 -41 -168.667 -95 -216c-8 -6.66699 -16 -13 -24 -19z" />
    <glyph glyph-name="uni1EE2" unicode="&#x1ee2;" horiz-adv-x="1742" 
d="M1170 1068c-78.667 90.667 -178.331 136 -298.998 136s-220.334 -44 -299.001 -132c-76 -84.667 -114 -188 -114 -310c0 -124.667 38 -230 114 -316c79.333 -90 180.666 -135 303.999 -135c118 0 216.333 45.333 295 136c74.667 86 112 189 112 309
c0 122 -37.667 226 -113 312zM708.003 -491v309h325v-309h-325zM1478 1274c128 -143.333 191.999 -315.332 191.999 -515.999c0 -222.667 -78.333 -410 -235 -562c-154.667 -150 -344 -225 -568 -225c-216.667 0 -402.667 73.667 -558 221
c-158.667 149.333 -238 331.666 -238 546.999c0 114.667 19.667 222.667 59 324c20.667 54 53.334 110.667 98.001 170c158 207.333 371.667 311 641 311c188 0 352 -53.667 492 -161l21 8c69.333 34 104 83.667 104 149h-80v228h229v-235
c-9.33301 -96.667 -41 -168.667 -95 -216c-20 -16.667 -40.667 -31 -62 -43z" />
    <glyph glyph-name="uni1EE3" unicode="&#x1ee3;" horiz-adv-x="1363" 
d="M876 770c-52.667 57.333 -117.667 86 -195 86s-142.333 -28.667 -195 -86c-51.333 -55.333 -77 -122.333 -77 -201c0 -78 25.667 -145 77 -201c52.667 -56.667 117.667 -85 195 -85s142.333 28.333 195 85c51.333 56 77 123 77 201c0 78.667 -25.667 145.667 -77 201z
M518 -491v309h326v-309h-326zM1180 931c75.333 -101.333 113.001 -222 113.001 -362c0 -173.333 -58.333 -317.333 -175 -432s-262.334 -172 -437.001 -172s-320.334 57.333 -437.001 172s-175 258.667 -175 432c0 174 58.333 318.333 175 433s262.334 172 437.001 172
c154 0 285.333 -44.333 394 -133c50 32.667 75 76.667 75 132h-80v228h229v-235c-9.33301 -96.667 -41 -168.667 -95 -216c-8 -6.66699 -16 -13 -24 -19z" />
    <glyph glyph-name="uni1EE4" unicode="&#x1ee4;" horiz-adv-x="1429" 
d="M1296 600c0 -103.333 -8.66895 -187.002 -26.002 -251.002c-23.333 -82 -65 -153.333 -125 -214c-107.333 -109.333 -248.666 -164 -423.999 -164c-85.333 0 -164 12.333 -236 37c-81.333 28 -148 69.667 -200 125c-64 67.333 -106.667 139.333 -128 216
c-9.33301 34.667 -16 73.667 -20 117c-2.66699 34.667 -4 79.334 -4 134.001v916h387v-916c0 -40 2 -74.333 6 -103c5.33301 -36.667 14.333 -67.667 27 -93c30.667 -62 85.334 -93 164.001 -93c81.333 0 136 30.333 164 91c11.333 24.667 19.333 55.334 24 92.001
c2.66699 26.667 4 62 4 106v916h387v-916zM551.998 -491.002v309h325v-309h-325z" />
    <glyph glyph-name="uni1EE5" unicode="&#x1ee5;" horiz-adv-x="1298" 
d="M853 0v121.001h-4c-28 -58 -68.667 -99.667 -122 -125c-46 -22 -103.667 -33 -173 -33c-144.667 0 -256 47.667 -334 143c-42.667 53.333 -71 108.666 -85 165.999c-11.333 43.333 -17 105 -17 185v680h340v-629c0 -73.333 11.333 -127.333 34 -162
c28 -43.333 77.333 -65 148 -65c130 0 195 77 195 231v625h340v-1137h-322zM518 -490.999v309h326v-309h-326z" />
    <glyph glyph-name="uni1EE6" unicode="&#x1ee6;" horiz-adv-x="1429" 
d="M1296 600c0 -103.333 -8.66895 -187.002 -26.002 -251.002c-23.333 -82 -65 -153.333 -125 -214c-107.333 -109.333 -248.666 -164 -423.999 -164c-85.333 0 -164 12.333 -236 37c-81.333 28 -148 69.667 -200 125c-64 67.333 -106.667 139.333 -128 216
c-9.33301 34.667 -16 73.667 -20 117c-2.66699 34.667 -4 79.334 -4 134.001v916h387v-916c0 -40 2 -74.333 6 -103c5.33301 -36.667 14.333 -67.667 27 -93c30.667 -62 85.334 -93 164.001 -93c81.333 0 136 30.333 164 91c11.333 24.667 19.333 55.334 24 92.001
c2.66699 26.667 4 62 4 106v916h387v-916zM955.998 1821c-7.33301 -12.667 -17 -25.666 -29 -38.999c-8.66699 -10.667 -20 -22.334 -34 -35.001l-34 -32c-12.667 -12 -23 -22.333 -31 -31c-20 -23.333 -31 -46 -33 -68h-174c0 30.667 9.33301 60.667 28 90
c7.33301 11.333 16.333 23.333 27 36c8 9.33301 18.667 20.333 32 33l31 31c11.333 12 20.333 22.333 27 31c18 22.667 27 44.334 27 65.001c0 41.333 -19.333 62 -58 62c-27.333 0 -46.333 -10 -57 -30c-7.33301 -13.333 -11.333 -35.333 -12 -66h-183
c-0.666992 2.66699 -1 5.66699 -1 9v9c0 73.333 25.667 133.666 77 180.999c49.333 45.333 111.333 68 186 68c101.333 0 173.333 -40 216 -120c16 -30 24 -60.667 24 -92c0 -36.667 -9.66699 -70.667 -29 -102z" />
    <glyph glyph-name="uni1EE7" unicode="&#x1ee7;" horiz-adv-x="1298" 
d="M853 0v121.001h-4c-28 -58 -68.667 -99.667 -122 -125c-46 -22 -103.667 -33 -173 -33c-144.667 0 -256 47.667 -334 143c-42.667 53.333 -71 108.666 -85 165.999c-11.333 43.333 -17 105 -17 185v680h340v-629c0 -73.333 11.333 -127.333 34 -162
c28 -43.333 77.333 -65 148 -65c130 0 195 77 195 231v625h340v-1137h-322zM904 1487c-7.33301 -12.667 -17.001 -25.666 -29.001 -38.999c-9.33301 -10.667 -20.666 -22.334 -33.999 -35.001l-34 -32c-13.333 -12 -23.666 -22.333 -30.999 -31c-20 -23.333 -31 -46 -33 -68
h-174c0 30.667 9 60.667 27 90c7.33301 11.333 16.666 23.333 27.999 36c8 9.33301 18.333 20.333 31 33l32 31c11.333 12 20.333 22.333 27 31c18 22.667 27 44.334 27 65.001c0 41.333 -19.333 62 -58 62c-28 0 -47 -10 -57 -30c-7.33301 -13.333 -11.333 -35.333 -12 -66
h-183c-0.666992 2.66699 -1 5.66699 -1 9v9c0 73.333 25.333 133.666 76 180.999c50 45.333 112.333 68 187 68c101.333 0 173.333 -40 216 -120c16 -30 24 -60.667 24 -92c0 -36.667 -9.66699 -70.667 -29 -102z" />
    <glyph glyph-name="uni1EE8" unicode="&#x1ee8;" horiz-adv-x="1429" 
d="M625 1589l-97 201l492 264l108 -242zM1296 1257l-0.00195312 -657.002c0 -103.333 -8.66699 -187 -26 -251c-23.333 -82 -65 -153.333 -125 -214c-107.333 -109.333 -248.666 -164 -423.999 -164c-84.667 0 -163.334 12.333 -236.001 37c-81.333 28 -148 69.667 -200 125
c-64 67.333 -106.667 139.333 -128 216c-9.33301 34.667 -15.666 73.667 -18.999 117c-3.33301 34.667 -5 79.334 -5 134.001v916h387v-916c0 -40 2 -74.333 6 -103c5.33301 -36.667 14.333 -67.667 27 -93c30.667 -62 85.334 -93 164.001 -93c81.333 0 136 30.333 164 91
c12 24.667 20 55.334 24 92.001c2.66699 26.667 4 62 4 106v916h387v-81c27.333 28.667 41 63.667 41 105h-80v228h229v-235c-9.33301 -96.667 -41 -168.667 -95 -216c-30 -25.333 -61.667 -45.333 -95 -60z" />
    <glyph glyph-name="uni1EE9" unicode="&#x1ee9;" horiz-adv-x="1298" 
d="M558 1272l-96 201l491 264l109 -242zM1175 878v-877.999h-322v121h-4c-28 -58 -68.667 -99.667 -122 -125c-46 -22 -103.667 -33 -173 -33c-144.667 0 -256 47.667 -334 143c-42.667 53.333 -71.334 108.666 -86.001 165.999c-10.667 43.333 -16 105 -16 185v680h340
v-629c0 -73.333 11 -127.333 33 -162c28.667 -43.333 78.334 -65 149.001 -65c130 0 195 77 195 231v625h340v-98c51.333 33.333 77 78 77 134h-80v228h229v-235c-9.33301 -96.667 -41 -168.667 -95 -216c-40 -34.667 -83.667 -58.667 -131 -72z" />
    <glyph glyph-name="uni1EEA" unicode="&#x1eea;" horiz-adv-x="1429" 
d="M809 1589l-506 221l105 240l495 -262zM1296 1257l-0.00195312 -657.002c0 -103.333 -8.66699 -187 -26 -251c-23.333 -82 -65 -153.333 -125 -214c-107.333 -109.333 -248.666 -164 -423.999 -164c-84.667 0 -163.334 12.333 -236.001 37
c-81.333 28 -148 69.667 -200 125c-64 67.333 -106.667 139.333 -128 216c-9.33301 34.667 -15.666 73.667 -18.999 117c-3.33301 34.667 -5 79.334 -5 134.001v916h387v-916c0 -40 2 -74.333 6 -103c5.33301 -36.667 14.333 -67.667 27 -93
c30.667 -62 85.334 -93 164.001 -93c81.333 0 136 30.333 164 91c12 24.667 20 55.334 24 92.001c2.66699 26.667 4 62 4 106v916h387v-81c27.333 28.667 41 63.667 41 105h-80v228h229v-235c-9.33301 -96.667 -41 -168.667 -95 -216c-30 -25.333 -61.667 -45.333 -95 -60z
" />
    <glyph glyph-name="uni1EEB" unicode="&#x1eeb;" horiz-adv-x="1298" 
d="M742 1257l-505 222l104 239l496 -262zM1175 878v-877.999h-322v121h-4c-28 -58 -68.667 -99.667 -122 -125c-46 -22 -103.667 -33 -173 -33c-144.667 0 -256 47.667 -334 143c-42.667 53.333 -71.334 108.666 -86.001 165.999c-10.667 43.333 -16 105 -16 185v680h340
v-629c0 -73.333 11 -127.333 33 -162c28.667 -43.333 78.334 -65 149.001 -65c130 0 195 77 195 231v625h340v-98c51.333 33.333 77 78 77 134h-80v228h229v-235c-9.33301 -96.667 -41 -168.667 -95 -216c-40 -34.667 -83.667 -58.667 -131 -72z" />
    <glyph glyph-name="uni1EEC" unicode="&#x1eec;" horiz-adv-x="1429" 
d="M957 1821c-8 -12.667 -18 -25.666 -30 -38.999c-8.66699 -10.667 -20 -22.334 -34 -35.001l-34 -32c-12.667 -12 -23 -22.333 -31 -31c-20 -23.333 -31 -46 -33 -68h-174c0.666992 30.667 10 60.667 28 90c7.33301 11.333 16.333 23.333 27 36
c8 9.33301 18.667 20.333 32 33l31 31c11.333 12 20.333 22.333 27 31c18 22.667 27 44.334 27 65.001c0 41.333 -19.333 62 -58 62c-27.333 0 -46.333 -10 -57 -30c-7.33301 -13.333 -11.333 -35.333 -12 -66h-183c-0.666992 2.66699 -1 5.66699 -1 9v9
c0 73.333 25.667 133.666 77 180.999c49.333 45.333 111.333 68 186 68c101.333 0 173.333 -40 216 -120c16 -30 24 -60.667 24 -92c0 -36.667 -9.33301 -70.667 -28 -102zM1296 1257l-0.00195312 -657.002c0 -103.333 -8.66699 -187 -26 -251
c-23.333 -82 -65 -153.333 -125 -214c-107.333 -109.333 -248.666 -164 -423.999 -164c-84.667 0 -163.334 12.333 -236.001 37c-81.333 28 -148 69.667 -200 125c-64 67.333 -106.667 139.333 -128 216c-9.33301 34.667 -15.666 73.667 -18.999 117
c-3.33301 34.667 -5 79.334 -5 134.001v916h387v-916c0 -40 2 -74.333 6 -103c5.33301 -36.667 14.333 -67.667 27 -93c30.667 -62 85.334 -93 164.001 -93c81.333 0 136 30.333 164 91c12 24.667 20 55.334 24 92.001c2.66699 26.667 4 62 4 106v916h387v-81
c27.333 28.667 41 63.667 41 105h-80v228h229v-235c-9.33301 -96.667 -41 -168.667 -95 -216c-30 -25.333 -61.667 -45.333 -95 -60z" />
    <glyph glyph-name="uni1EED" unicode="&#x1eed;" horiz-adv-x="1298" 
d="M904 1487c-8 -12.667 -17.668 -25.666 -29.001 -38.999c-9.33301 -10.667 -20.666 -22.334 -33.999 -35.001l-34 -32c-13.333 -12 -23.666 -22.333 -30.999 -31c-20.667 -23.333 -32 -46 -34 -68h-174c0.666992 30.667 10 60.667 28 90
c7.33301 11.333 16.666 23.333 27.999 36c8 9.33301 18.333 20.333 31 33l32 31c11.333 12 20.333 22.333 27 31c17.333 22.667 26 44.334 26 65.001c0 41.333 -19.333 62 -58 62c-27.333 0 -46.333 -10 -57 -30c-7.33301 -13.333 -11.333 -35.333 -12 -66h-183v9l-1 9
c0 73.333 25.667 133.666 77 180.999c50 45.333 112 68 186 68c102 0 174 -40 216 -120c16 -30 24 -60.667 24 -92c0 -36.667 -9.33301 -70.667 -28 -102zM1175 878.001v-877.999h-322v121h-4c-28 -58 -68.667 -99.667 -122 -125c-46 -22 -103.667 -33 -173 -33
c-144.667 0 -256 47.667 -334 143c-42.667 53.333 -71.334 108.666 -86.001 165.999c-10.667 43.333 -16 105 -16 185v680h340v-629c0 -73.333 11 -127.333 33 -162c28.667 -43.333 78.334 -65 149.001 -65c130 0 195 77 195 231v625h340v-98c51.333 33.333 77 78 77 134
h-80v228h229v-235c-9.33301 -96.667 -41 -168.667 -95 -216c-40 -34.667 -83.667 -58.667 -131 -72z" />
    <glyph glyph-name="uni1EEE" unicode="&#x1eee;" horiz-adv-x="1429" 
d="M1110 1739c-80 -50.667 -157.001 -76 -231.001 -76c-22.667 0 -49.667 2.66699 -81 8l-169 37c-30 5.33301 -56 8 -78 8c-24.667 0 -49.667 -4 -75 -12l-72 -27l-123 181c38 21.333 74 38 108 50c40.667 14 79.667 21 117 21c25.333 0 53.333 -2.66699 84 -8
c12 -2 25.667 -4.66699 41 -8l82 -19c15.333 -3.33301 29 -6 41 -8c30.667 -5.33301 58.667 -8 84 -8c44.667 0 94.334 11.667 149.001 35zM1296 1257l-0.00195312 -657.002c0 -103.333 -8.66699 -187 -26 -251c-23.333 -82 -65 -153.333 -125 -214
c-107.333 -109.333 -248.666 -164 -423.999 -164c-84.667 0 -163.334 12.333 -236.001 37c-81.333 28 -148 69.667 -200 125c-64 67.333 -106.667 139.333 -128 216c-9.33301 34.667 -15.666 73.667 -18.999 117c-3.33301 34.667 -5 79.334 -5 134.001v916h387v-916
c0 -40 2 -74.333 6 -103c5.33301 -36.667 14.333 -67.667 27 -93c30.667 -62 85.334 -93 164.001 -93c81.333 0 136 30.333 164 91c12 24.667 20 55.334 24 92.001c2.66699 26.667 4 62 4 106v916h387v-81c27.333 28.667 41 63.667 41 105h-80v228h229v-235
c-9.33301 -96.667 -41 -168.667 -95 -216c-30 -25.333 -61.667 -45.333 -95 -60z" />
    <glyph glyph-name="uni1EEF" unicode="&#x1eef;" horiz-adv-x="1298" 
d="M1097 1409c-80.667 -50.667 -158.001 -76 -232.001 -76c-22.667 0 -49.334 3 -80.001 9l-169 36c-30.667 5.33301 -56.667 8 -78 8c-24.667 0 -50 -3.66699 -76 -11l-72 -27l-123 180c38 22 74 38.667 108 50c41.333 14 80.666 21 117.999 21
c24.667 0 52.334 -2.66699 83.001 -8c12 -2 25.667 -4.66699 41 -8l83 -19c14.667 -3.33301 28.334 -6 41.001 -8c30.667 -5.33301 58.334 -8 83.001 -8c45.333 0 95.333 11.667 150 35zM1175 878v-877.999h-322v121h-4c-28 -58 -68.667 -99.667 -122 -125
c-46 -22 -103.667 -33 -173 -33c-144.667 0 -256 47.667 -334 143c-42.667 53.333 -71.334 108.666 -86.001 165.999c-10.667 43.333 -16 105 -16 185v680h340v-629c0 -73.333 11 -127.333 33 -162c28.667 -43.333 78.334 -65 149.001 -65c130 0 195 77 195 231v625h340v-98
c51.333 33.333 77 78 77 134h-80v228h229v-235c-9.33301 -96.667 -41 -168.667 -95 -216c-40 -34.667 -83.667 -58.667 -131 -72z" />
    <glyph glyph-name="uni1EF0" unicode="&#x1ef0;" horiz-adv-x="1429" 
d="M552 -491v309h326v-309h-326zM1296 1257l-0.00195312 -657.002c0 -103.333 -8.66699 -187 -26 -251c-23.333 -82 -65 -153.333 -125 -214c-107.333 -109.333 -248.666 -164 -423.999 -164c-84.667 0 -163.334 12.333 -236.001 37c-81.333 28 -148 69.667 -200 125
c-64 67.333 -106.667 139.333 -128 216c-9.33301 34.667 -15.666 73.667 -18.999 117c-3.33301 34.667 -5 79.334 -5 134.001v916h387v-916c0 -40 2 -74.333 6 -103c5.33301 -36.667 14.333 -67.667 27 -93c30.667 -62 85.334 -93 164.001 -93c81.333 0 136 30.333 164 91
c12 24.667 20 55.334 24 92.001c2.66699 26.667 4 62 4 106v916h387v-81c27.333 28.667 41 63.667 41 105h-80v228h229v-235c-9.33301 -96.667 -41 -168.667 -95 -216c-30 -25.333 -61.667 -45.333 -95 -60z" />
    <glyph glyph-name="uni1EF1" unicode="&#x1ef1;" horiz-adv-x="1298" 
d="M518 -491v309h326v-309h-326zM1175 878v-877.999h-322v121h-4c-28 -58 -68.667 -99.667 -122 -125c-46 -22 -103.667 -33 -173 -33c-144.667 0 -256 47.667 -334 143c-42.667 53.333 -71.334 108.666 -86.001 165.999c-10.667 43.333 -16 105 -16 185v680h340v-629
c0 -73.333 11 -127.333 33 -162c28.667 -43.333 78.334 -65 149.001 -65c130 0 195 77 195 231v625h340v-98c51.333 33.333 77 78 77 134h-80v228h229v-235c-9.33301 -96.667 -41 -168.667 -95 -216c-40 -34.667 -83.667 -58.667 -131 -72z" />
    <glyph glyph-name="Ygrave" unicode="&#x1ef2;" horiz-adv-x="1325" 
d="M858 551v-551h-387v551l-453 965h420l225 -609l227 609h416zM809 1589l-506 221l104 240l496 -262z" />
    <glyph glyph-name="ygrave" unicode="&#x1ef3;" horiz-adv-x="1175" 
d="M604 -379h-360l180 436l-422 1080h362l228 -660h4l217 660h360zM253 1495l109 242l491 -264l-96 -201z" />
    <glyph glyph-name="uni1EF4" unicode="&#x1ef4;" horiz-adv-x="1325" 
d="M858 551v-551h-387v551l-453 965h420l225 -609l227 609h416zM504 -491v309h326v-309h-326z" />
    <glyph glyph-name="uni1EF5" unicode="&#x1ef5;" horiz-adv-x="1175" 
d="M604 -379h-360l180 436l-422 1080h362l228 -660h4l217 660h360zM713 -491v309h326v-309h-326z" />
    <glyph glyph-name="uni1EF6" unicode="&#x1ef6;" horiz-adv-x="1325" 
d="M858 551v-551h-387v551l-453 965h420l225 -609l227 609h416zM909 1821c-8 -12.667 -17.668 -25.666 -29.001 -38.999c-9.33301 -10.667 -20.666 -22.334 -33.999 -35.001l-34 -32c-13.333 -12 -23.666 -22.333 -30.999 -31c-20.667 -23.333 -32 -46 -34 -68h-174
c0.666992 30.667 10 60.667 28 90c7.33301 11.333 16.666 23.333 27.999 36c8 9.33301 18.333 20.333 31 33l32 31c11.333 12 20.333 22.333 27 31c17.333 22.667 26 44.334 26 65.001c0 41.333 -19.333 62 -58 62c-27.333 0 -46.333 -10 -57 -30
c-7.33301 -13.333 -11.333 -35.333 -12 -66h-183v9l-1 9c0 73.333 25.667 133.666 77 180.999c50 45.333 112 68 186 68c102 0 174 -40 216 -120c16 -30 24 -60.667 24 -92c0 -36.667 -9.33301 -70.667 -28 -102z" />
    <glyph glyph-name="uni1EF7" unicode="&#x1ef7;" horiz-adv-x="1175" 
d="M604 -379h-360l180 436l-422 1080h362l228 -660h4l217 660h360zM868 1487c-8 -12.667 -17.668 -25.666 -29.001 -38.999c-9.33301 -10.667 -20.666 -22.334 -33.999 -35.001l-34 -32c-13.333 -12 -23.666 -22.333 -30.999 -31c-20.667 -23.333 -32 -46 -34 -68h-174
c0.666992 30.667 10 60.667 28 90c7.33301 11.333 16.666 23.333 27.999 36c8 9.33301 18.333 20.333 31 33l32 31c11.333 12 20.333 22.333 27 31c17.333 22.667 26 44.334 26 65.001c0 41.333 -19.333 62 -58 62c-27.333 0 -46.333 -10 -57 -30
c-7.33301 -13.333 -11.333 -35.333 -12 -66h-183v9l-1 9c0 73.333 25.667 133.666 77 180.999c50 45.333 112 68 186 68c102 0 174 -40 216 -120c16 -30 24 -60.667 24 -92c0 -36.667 -9.33301 -70.667 -28 -102z" />
    <glyph glyph-name="uni1EF8" unicode="&#x1ef8;" horiz-adv-x="1325" 
d="M858 551v-551h-387v551l-453 965h420l225 -609l227 609h416zM1110 1739c-80.667 -50.667 -158.001 -76 -232.001 -76c-22.667 0 -49.334 2.66699 -80.001 8l-169 37c-30.667 5.33301 -56.667 8 -78 8c-24.667 0 -50 -4 -76 -12l-72 -27l-123 181c38 21.333 74 38 108 50
c41.333 14 80.666 21 117.999 21c24.667 0 52.334 -2.66699 83.001 -8c12 -2 25.667 -4.66699 41 -8l83 -19c14.667 -3.33301 28.334 -6 41.001 -8c30.667 -5.33301 58.334 -8 83.001 -8c45.333 0 95.333 11.667 150 35z" />
    <glyph glyph-name="uni1EF9" unicode="&#x1ef9;" horiz-adv-x="1175" 
d="M604 -379h-360l180 436l-422 1080h362l228 -660h4l217 660h360zM1033 1409c-80.667 -50.667 -158.001 -76 -232.001 -76c-22.667 0 -49.334 3 -80.001 9l-169 36c-30.667 5.33301 -56.667 8 -78 8c-24.667 0 -50 -3.66699 -76 -11l-72 -27l-123 180
c38 22 74 38.667 108 50c41.333 14 80.666 21 117.999 21c24.667 0 52.334 -2.66699 83.001 -8c12 -2 25.667 -4.66699 41 -8l83 -19c14.667 -3.33301 28.334 -6 41.001 -8c30.667 -5.33301 58.334 -8 83.001 -8c45.333 0 95.333 11.667 150 35z" />
    <glyph glyph-name="quoteleft" unicode="&#x2018;" horiz-adv-x="631" 
d="M137 838v430c0 68 17.333 125 52 171c38.667 51.333 91 77 157 77h147v-185l-50 1c-21.333 -0.666992 -39 -2.66699 -53 -6c-38.667 -9.33301 -58 -33 -58 -71v-69h161v-348h-356z" />
    <glyph glyph-name="quoteright" unicode="&#x2019;" horiz-adv-x="612" 
d="M493 1085c0 -69.333 -17 -126.666 -51 -171.999c-38 -50 -90.667 -75 -158 -75h-147v182l51 -1c21.333 0.666992 39 2.66699 53 6c38.667 9.33301 58 33.666 58 72.999v69h-162v349h356v-431z" />
    <glyph glyph-name="quotedblleft" unicode="&#x201c;" horiz-adv-x="1136" 
d="M643 838v430c0 68 17.333 125 52 171c38.667 51.333 91 77 157 77h147v-185l-50 1c-21.333 -0.666992 -39 -2.66699 -53 -6c-39.333 -9.33301 -59 -33 -59 -71v-69h162v-348h-356zM137 838v430c0 68 17.333 125 52 171c38.667 51.333 91 77 157 77h147v-185l-50 1
c-21.333 -0.666992 -39 -2.66699 -53 -6c-38.667 -9.33301 -58 -33 -58 -71v-69h161v-348h-356z" />
    <glyph glyph-name="quotedblright" unicode="&#x201d;" horiz-adv-x="1136" 
d="M999 1085c0 -69.333 -17 -126.666 -51 -171.999c-38 -50 -90.667 -75 -158 -75h-147v182l51 -1c20.667 0.666992 38 2.66699 52 6c38 9.33301 57 33.666 57 72.999v69h-160v349h356v-431zM493 1085c0 -69.333 -17 -126.666 -51 -171.999c-38 -50 -90.667 -75 -158 -75
h-147v182l51 -1c21.333 0.666992 39 2.66699 53 6c38.667 9.33301 58 33.666 58 72.999v69h-162v349h356v-431z" />
    <glyph glyph-name="ellipsis" unicode="&#x2026;" horiz-adv-x="2048" 
d="M1529 0v348h354v-348h-354zM847 0v348h354v-348h-354zM165 0v348h354v-348h-354z" />
    <glyph glyph-name=".null" horiz-adv-x="0" 
 />
    <glyph glyph-name="nonmarkingreturn" horiz-adv-x="571" 
 />
    <glyph glyph-name="ugrave" horiz-adv-x="582" 
 />
    <glyph glyph-name="uacute" horiz-adv-x="580" 
 />
    <glyph glyph-name="yacute" horiz-adv-x="629" 
 />
    </font>
</defs>
</svg>
